Titanic (1997) [Open Matte] REMUX 1080p Latino – CMHDD

47 vistas
1 estrella2 estrellas3 estrellas4 estrellas5 estrellas (2 votos, promedio: 5,00 de 5)
Cargando...

Información de Titanic (1997) [Open Matte] REMUX 1080p Latino – CMHDD

Datos de la película

  • Calidad: Full 1080p
  • Audio: Español Latino AC3 5.1 BLURAY - Ingles DTS 5.1 BLURAY
  • Subtitulos: Español Latino PGS
  • Resolución: 1920x1080p
  • Formato: MKV
  • Codec: H.264
  • Encoder: Dracarys
  • Mediainfo: Clic para Mostrar Datos Ver
  • Format                      : Matroska
    Format version              : Version 4
    File size                   : 49.2 GiB
    Duration                    : 3 h 14 min
    Overall bit rate mode       : Variable
    Overall bit rate            : 36.1 Mb/s
    Movie name                  : Titanic (1997) [Open Matte] REMUX 1080p Latino - CMHDD
    Encoded date                : UTC 2021-09-29 19:03:34
    Writing application         : mkvmerge v17.0.0 ('Be Ur Friend') 64-bit
    Writing library             : libebml v1.3.5 + libmatroska v1.4.8

    Video
    ID                          : 1
    Format                      : AVC
    Format/Info                 : Advanced Video Codec
    Format profile              : High@L4.1
    Format settings             : CABAC / 3 Ref Frames
    Format settings, CABAC      : Yes
    Format settings, Reference  : 3 frames
    Codec ID                    : V_MPEG4/ISO/AVC
    Duration                    : 3 h 14 min
    Bit rate                    : 31.3 Mb/s
    Width                       : 1 920 pixels
    Height                      : 1 080 pixels
    Display aspect ratio        : 16:9
    Frame rate mode             : Constant
    Frame rate                  : 23.976 (24000/1001) FPS
    Color space                 : YUV
    Chroma subsampling          : 4:2:0
    Bit depth                   : 8 bits
    Scan type                   : Progressive
    Bits/(Pixel*Frame)          : 0.630
    Stream size                 : 42.7 GiB (87%)
    Language                    : English
    Default                     : Yes
    Forced                      : No

    Audio #1
    ID                          : 2
    Format                      : DTS XLL
    Format/Info                 : Digital Theater Systems
    Commercial name             : DTS-HD Master Audio
    Codec ID                    : A_DTS
    Duration                    : 3 h 14 min
    Bit rate mode               : Variable
    Bit rate                    : 3 896 kb/s
    Channel(s)                  : 6 channels
    Channel layout              : C L R Ls Rs LFE
    Sampling rate               : 48.0 kHz
    Frame rate                  : 93.750 FPS (512 SPF)
    Bit depth                   : 24 bits
    Compression mode            : Lossless
    Stream size                 : 5.30 GiB (11%)
    Language                    : English
    Default                     : No
    Forced                      : No

    Audio #2
    ID                          : 3
    Format                      : AC-3
    Format/Info                 : Audio Coding 3
    Commercial name             : Dolby Digital
    Format settings             : Dolby Surround
    Codec ID                    : A_AC3
    Duration                    : 3 h 14 min
    Bit rate mode               : Constant
    Bit rate                    : 224 kb/s
    Channel(s)                  : 2 channels
    Channel layout              : L R
    Sampling rate               : 48.0 kHz
    Frame rate                  : 31.250 FPS (1536 SPF)
    Compression mode            : Lossy
    Delay relative to video     : 23 ms
    Stream size                 : 312 MiB (1%)
    Language                    : English
    Service kind                : Complete Main
    Default                     : No
    Forced                      : No

    Audio #3
    ID                          : 4
    Format                      : AC-3
    Format/Info                 : Audio Coding 3
    Commercial name             : Dolby Digital
    Codec ID                    : A_AC3
    Duration                    : 3 h 14 min
    Bit rate mode               : Constant
    Bit rate                    : 640 kb/s
    Channel(s)                  : 6 channels
    Channel layout              : L R C LFE Ls Rs
    Sampling rate               : 48.0 kHz
    Frame rate                  : 31.250 FPS (1536 SPF)
    Compression mode            : Lossy
    Delay relative to video     : 23 ms
    Stream size                 : 892 MiB (2%)
    Language                    : Spanish
    Service kind                : Complete Main
    Default                     : Yes
    Forced                      : No

    Text
    ID                          : 5
    Format                      : PGS
    Muxing mode                 : zlib
    Codec ID                    : S_HDMV/PGS
    Codec ID/Info               : Picture based subtitle format used on BDs/HD-DVDs
    Duration                    : 3 h 1 min
    Bit rate                    : 12.8 kb/s
    Count of elements           : 4070
    Stream size                 : 16.6 MiB (0%)
    Language                    : Spanish
    Default                     : No
    Forced                      : No

    Menu
    00:00:00.000                : en:00:00:00.000
    00:01:24.376                : en:00:01:24.376
    00:04:39.988                : en:00:04:39.988
    00:08:26.131                : en:00:08:26.131
    00:10:46.771                : en:00:10:46.771
    00:12:52.647                : en:00:12:52.647
    00:16:52.428                : en:00:16:52.428
    00:20:07.748                : en:00:20:07.748
    00:23:38.876                : en:00:23:38.876
    00:26:26.543                : en:00:26:26.543
    00:29:03.366                : en:00:29:03.366
    00:29:37.526                : en:00:29:37.526
    00:34:59.931                : en:00:34:59.931
    00:36:48.623                : en:00:36:48.623
    00:42:59.160                : en:00:42:59.160
    00:45:26.098                : en:00:45:26.098
    00:47:11.620                : en:00:47:11.620
    00:53:33.043                : en:00:53:33.043
    00:56:47.988                : en:00:56:47.988
    01:05:32.053                : en:01:05:32.053
    01:10:19.965                : en:01:10:19.965
    01:14:06.358                : en:01:14:06.358
    01:16:10.691                : en:01:16:10.691
    01:19:59.044                : en:01:19:59.044
    01:22:50.507                : en:01:22:50.507
    01:23:40.056                : en:01:23:40.056
    01:28:21.629                : en:01:28:21.629
    01:29:19.854                : en:01:29:19.854
    01:32:52.275                : en:01:32:52.275
    01:36:59.104                : en:01:36:59.104
    01:44:41.149                : en:01:44:41.149
    01:46:21.041                : en:01:46:21.041
    01:47:58.847                : en:01:47:58.847
    01:50:11.104                : en:01:50:11.104
    01:52:21.401                : en:01:52:21.401
    01:53:54.327                : en:01:53:54.327
    01:55:21.831                : en:01:55:21.831
    01:56:10.880                : en:01:56:10.880
    01:57:53.232                : en:01:57:53.232
    02:06:38.340                : en:02:06:38.340
    02:08:49.972                : en:02:08:49.972
    02:11:22.082                : en:02:11:22.082
    02:15:42.550                : en:02:15:42.550
    02:19:43.458                : en:02:19:43.458
    02:21:24.559                : en:02:21:24.559
    02:25:28.761                : en:02:25:28.761
    02:27:28.422                : en:02:27:28.422
    02:29:07.271                : en:02:29:07.271
    02:29:56.695                : en:02:29:56.695
    02:33:31.535                : en:02:33:31.535
    02:36:52.360                : en:02:36:52.360
    02:38:33.878                : en:02:38:33.878
    02:40:34.666                : en:02:40:34.666
    02:45:00.640                : en:02:45:00.640
    02:47:48.808                : en:02:47:48.808
    02:49:22.526                : en:02:49:22.526
    02:52:09.610                : en:02:52:09.610
    02:53:41.327                : en:02:53:41.327
    02:57:53.495                : en:02:57:53.495
    02:59:35.305                : en:02:59:35.305
    03:01:29.252                : en:03:01:29.252
    03:03:13.648                : en:03:03:13.648
    03:04:57.877                : en:03:04:57.877
    03:07:19.644                : en:03:07:19.644

  • Peso: 49.2 GiB

Sinopsis

Durante las labores de recuperación de los restos del famoso Titanic, una anciana norteamericana se pone en contacto con la expedición para acudir a una plataforma flotante instalada en el Mar del Norte y asistir ‘in situ’ a la recuperación de sus recuerdos. A través de su memoria reviviremos los acontecimientos que marcaron el siniestro más famoso del siglo XX: el hundimiento del trasatlántico más lujoso del mundo, la máquina más sofisticada de su tiempo, considerada «insumergible», que sucumbió a las heladas aguas del Atlántico en abril de 1912, llevándose consigo la vida de mil quinientas personas, más de la mitad del pasaje. En los recueros de la anciana hay cabida para algo más que la tragedia, la historia de amor que vivió con un joven pasajero de tercera clase, un pintor aficionado que había ganado su pasaje en una partida las cartas en una taberna de Southampton.

Ficha técnica

Video trailer de la película

Enlaces de descarga

Rip de Bluray

Descargar Titanic (1997) [Open Matte] REMUX 1080p Latino – CMHDD


Aportes de DPeliculasHDmega la pass es:dpeliculashdmega.org Aportes de CinemaniaHD la pass es:cinemaniahdd.com
Guardado en : Drama , Romance

Películas relacionadas

Titanic (1997) [Open Matte] REMUX 1080p Latino – CMHDD pelicula full hd, Titanic (1997) [Open Matte] REMUX 1080p Latino – CMHDD mega latino, Titanic (1997) [Open Matte] REMUX 1080p Latino – CMHDD 4k latino, Titanic (1997) [Open Matte] REMUX 1080p Latino – CMHDD pelicula completa, Titanic (1997) [Open Matte] REMUX 1080p Latino – CMHDD descargar gratis, descargar Titanic (1997) [Open Matte] REMUX 1080p Latino – CMHDD pelicula latino, Titanic (1997) [Open Matte] REMUX 1080p Latino – CMHDD 1 link mega, Titanic (1997) [Open Matte] REMUX 1080p Latino – CMHDD 1 link google drive, Titanic (1997) [Open Matte] REMUX 1080p Latino – CMHDD hd 1080p latino.
Comentarios 1
  • Andrés - 29 septiembre, 2021

    Hola, muchas gracias por las imágenes de la viejita, ya que pude comparar esta versión con la otra Remux, nunca había descargado alguna versión [Open Matte], porque creía que le hacían un zoom a la película normal y se perdía información, ahora veo que no, al ampliar la imagen se ve mas información en la parte de arriba de la película, muchas gracias.