×

¿Problemas para descargar con Mozilla, EDGE? Deshabilita la opción "Abrir vinculos en una pestaña nueva" tal como lo muestra ésta imagen.

Titanic (1997) 4K HDR Latino – CMHDD

246 vistas

Información de Titanic (1997) 4K HDR Latino – CMHDD

Datos de la película

  • Calidad: 4K HDR
  • Audio: Español Latino AC3 5.1 BLURAY - Ingles DTS 5.1 BLURAY
  • Subtitulos: Español Latino PGS
  • Resolución: 3840x2160p
  • Formato: MKV
  • Codec: HEVC
  • Encoder: Dracarys
  • Mediainfo: Clic para Mostrar Datos Ver
  • Format                      : Matroska
    Format version              : Version 4
    File size                   : 94.8 GiB
    Duration                    : 3 h 14 min
    Overall bit rate mode       : Variable
    Overall bit rate            : 69.7 Mb/s
    Movie name                  : Titanic (1997) 4K HDR Latino - CMHDD
    Encoded date                : UTC 2023-09-20 02:54:59
    Writing application         : mkvmerge v47.0.0 ('Black Flag') 64-bit
    Writing library             : libebml v1.3.10 + libmatroska v1.5.2

    Video
    ID                          : 1
    Format                      : HEVC
    Format/Info                 : High Efficiency Video Coding
    Format profile              : Main 10@L5.1@High
    Codec ID                    : V_MPEGH/ISO/HEVC
    Duration                    : 3 h 14 min
    Bit rate                    : 65.2 Mb/s
    Width                       : 3 840 pixels
    Height                      : 2 160 pixels
    Display aspect ratio        : 16:9
    Frame rate mode             : Constant
    Frame rate                  : 23.976 (24000/1001) FPS
    Standard                    : PAL
    Color space                 : YUV
    Chroma subsampling          : 4:2:0 (Type 2)
    Bit depth                   : 10 bits
    Bits/(Pixel*Frame)          : 0.328
    Stream size                 : 88.6 GiB (93%)
    Title                       : BTM
    Language                    : English
    Default                     : Yes
    Forced                      : No
    Color range                 : Limited
    Color primaries             : BT.2020
    Transfer characteristics    : PQ
    Matrix coefficients         : BT.2020 non-constant

    Audio #1
    ID                          : 2
    Format                      : DTS XLL
    Format/Info                 : Digital Theater Systems
    Commercial name             : DTS-HD Master Audio
    Codec ID                    : A_DTS
    Duration                    : 3 h 14 min
    Bit rate mode               : Variable
    Bit rate                    : 3 896 kb/s
    Channel(s)                  : 6 channels
    Channel layout              : C L R Ls Rs LFE
    Sampling rate               : 48.0 kHz
    Frame rate                  : 93.750 FPS (512 SPF)
    Bit depth                   : 24 bits
    Compression mode            : Lossless
    Delay relative to video     : 5 ms
    Stream size                 : 5.30 GiB (6%)
    Language                    : English
    Default                     : No
    Forced                      : No

    Audio #2
    ID                          : 3
    Format                      : AC-3
    Format/Info                 : Audio Coding 3
    Commercial name             : Dolby Digital
    Codec ID                    : A_AC3
    Duration                    : 3 h 14 min
    Bit rate mode               : Constant
    Bit rate                    : 640 kb/s
    Channel(s)                  : 6 channels
    Channel layout              : L R C LFE Ls Rs
    Sampling rate               : 48.0 kHz
    Frame rate                  : 31.250 FPS (1536 SPF)
    Compression mode            : Lossy
    Delay relative to video     : 16 ms
    Stream size                 : 891 MiB (1%)
    Language                    : Spanish
    Service kind                : Complete Main
    Default                     : Yes
    Forced                      : No

    Text
    ID                          : 4
    Format                      : PGS
    Muxing mode                 : zlib
    Codec ID                    : S_HDMV/PGS
    Codec ID/Info               : Picture based subtitle format used on BDs/HD-DVDs
    Duration                    : 3 h 1 min
    Bit rate                    : 12.8 kb/s
    Frame rate                  : 0.374 FPS
    Count of elements           : 4070
    Stream size                 : 16.6 MiB (0%)
    Language                    : Spanish
    Default                     : No
    Forced                      : No

    Menu
    00:00:00.000                : en:00:00:00.000
    00:01:14.366                : en:00:01:24.376
    00:04:29.978                : en:00:04:39.988
    00:08:16.121                : en:00:08:26.131
    00:10:36.761                : en:00:10:46.771
    00:12:42.637                : en:00:12:52.647
    00:16:42.418                : en:00:16:52.428
    00:19:57.738                : en:00:20:07.748
    00:23:28.866                : en:00:23:38.876
    00:26:16.533                : en:00:26:26.543
    00:28:53.356                : en:00:29:03.366
    00:29:27.516                : en:00:29:37.526
    00:34:49.921                : en:00:34:59.931
    00:36:38.613                : en:00:36:48.623
    00:42:49.150                : en:00:42:59.160
    00:45:16.088                : en:00:45:26.098
    00:47:01.610                : en:00:47:11.620
    00:53:23.033                : en:00:53:33.043
    00:56:37.978                : en:00:56:47.988
    01:05:22.043                : en:01:05:32.053
    01:10:09.955                : en:01:10:19.965
    01:13:56.348                : en:01:14:06.358
    01:16:00.681                : en:01:16:10.691
    01:19:49.034                : en:01:19:59.044
    01:22:40.497                : en:01:22:50.507
    01:23:30.046                : en:01:23:40.056
    01:28:11.619                : en:01:28:21.629
    01:29:09.844                : en:01:29:19.854
    01:32:42.265                : en:01:32:52.275
    01:36:49.094                : en:01:36:59.104
    01:44:31.139                : en:01:44:41.149
    01:46:11.031                : en:01:46:21.041
    01:47:48.837                : en:01:47:58.847
    01:50:01.094                : en:01:50:11.104
    01:52:11.391                : en:01:52:21.401
    01:53:44.317                : en:01:53:54.327
    01:55:11.821                : en:01:55:21.831
    01:56:00.870                : en:01:56:10.880
    01:57:43.222                : en:01:57:53.232
    02:06:28.330                : en:02:06:38.340
    02:08:39.962                : en:02:08:49.972
    02:11:12.072                : en:02:11:22.082
    02:15:32.540                : en:02:15:42.550
    02:19:33.448                : en:02:19:43.458
    02:21:14.549                : en:02:21:24.559
    02:25:18.751                : en:02:25:28.761
    02:27:18.412                : en:02:27:28.422
    02:28:57.261                : en:02:29:07.271
    02:29:46.685                : en:02:29:56.695
    02:33:21.525                : en:02:33:31.535
    02:36:42.350                : en:02:36:52.360
    02:38:23.868                : en:02:38:33.878
    02:40:24.656                : en:02:40:34.666
    02:44:50.630                : en:02:45:00.640
    02:47:38.798                : en:02:47:48.808
    02:49:12.516                : en:02:49:22.526
    02:51:59.600                : en:02:52:09.610
    02:53:31.317                : en:02:53:41.327
    02:57:43.485                : en:02:57:53.495
    02:59:25.295                : en:02:59:35.305
    03:01:19.242                : en:03:01:29.252
    03:03:03.638                : en:03:03:13.648
    03:04:47.867                : en:03:04:57.877
    03:07:09.634                : en:03:07:19.644

     

  • Peso: 94.8 GiB

Sinopsis

Durante las labores de recuperación de los restos del famoso Titanic, una anciana norteamericana se pone en contacto con la expedición para acudir a una plataforma flotante instalada en el Mar del Norte y asistir ‘in situ’ a la recuperación de sus recuerdos. A través de su memoria reviviremos los acontecimientos que marcaron el siniestro más famoso del siglo XX: el hundimiento del trasatlántico más lujoso del mundo, la máquina más sofisticada de su tiempo, considerada «insumergible», que sucumbió a las heladas aguas del Atlántico en abril de 1912, llevándose consigo la vida de mil quinientas personas, más de la mitad del pasaje. En los recueros de la anciana hay cabida para algo más que la tragedia, la historia de amor que vivió con un joven pasajero de tercera clase, un pintor aficionado que había ganado su pasaje en una partida las cartas en una taberna de Southampton.

Ficha técnica

Video trailer de la película

Enlaces de descarga

Rip de Bluray

Descargar Titanic (1997) 4K HDR Latino – CMHDD


Aportes de DPeliculasHDmega la pass es:dpeliculashdmega.org Aportes de CinemaniaHD la pass es:cinemaniahdd.com Aportes recientes:cinemaniahdd.net
Guardado en : Drama , Romance

Películas relacionadas

descargar Titanic (1997) 4K HDR Latino – CMHDD 4K HDR 1080p gratis, Titanic (1997) 4K HDR Latino – CMHDD 4K HDR mega 1 link, Titanic (1997) 4K HDR Latino – CMHDD 4K HDR pelicula completa, descargar Titanic (1997) 4K HDR Latino – CMHDD 4K HDR gratis en mega.

Titanic (1997) 4K HDR Latino – CMHDD pelicula full hd, Titanic (1997) 4K HDR Latino – CMHDD mega latino, Titanic (1997) 4K HDR Latino – CMHDD 4k latino, Titanic (1997) 4K HDR Latino – CMHDD pelicula completa, Titanic (1997) 4K HDR Latino – CMHDD descargar gratis, descargar Titanic (1997) 4K HDR Latino – CMHDD pelicula latino, Titanic (1997) 4K HDR Latino – CMHDD 1 link mega, Titanic (1997) 4K HDR Latino – CMHDD 1 link google drive, Titanic (1997) 4K HDR Latino – CMHDD hd 1080p latino.
Comentarios 0