Titanes (2018) Temporada 01 Web-DL 1080p Subtitulado

9.645 vistas
1 estrella2 estrellas3 estrellas4 estrellas5 estrellas (22 votos, promedio: 3,32 de 5)
Cargando…

Información de Titanes (2018) Temporada 01 Web-DL 1080p Subtitulado

Datos de la película

  • Calidad: WEBDL
  • Audio: Se especifica abajo de la Sinopsis
  • Subtitulos: Español Latino SRT - Ingles SRT
  • Resolución: 1920x1080p
  • Formato: MKV
  • Codec: H.264
  • Encoder: NTB
  • Mediainfo: Clic para Mostrar Datos Ver
  • Titans S01E06 (2018) Web-DL 1080p Subtitulado.mkv
    Format                      : Matroska
    Format version              : Version 4 / Version 2
    File size                   : 1.69 GiB
    Duration                    : 47 min 25 s
    Overall bit rate            : 5 091 kb/s
    Movie name                  : CinemaniaHDD.Net
    Encoded date                : UTC 2018-11-22 05:35:11
    Writing application         : mkvmerge v25.0.0 ('Prog Noir') 64-bit
    Writing library             : libebml v1.3.6 + libmatroska v1.4.9

    Video
    ID                          : 1
    Format                      : AVC
    Format/Info                 : Advanced Video Codec
    Format profile              : [email protected]
    Format settings             : 4 Ref Frames
    Format settings, CABAC      : No
    Format settings, RefFrames  : 4 frames
    Format settings, GOP        : M=1, N=48
    Codec ID                    : V_MPEG4/ISO/AVC
    Duration                    : 47 min 25 s
    Bit rate                    : 4 960 kb/s
    Width                       : 1 920 pixels
    Height                      : 1 080 pixels
    Display aspect ratio        : 16:9
    Frame rate mode             : Constant
    Frame rate                  : 23.976 (24000/1001) FPS
    Color space                 : YUV
    Chroma subsampling          : 4:2:0
    Bit depth                   : 8 bits
    Scan type                   : Progressive
    Bits/(Pixel*Frame)          : 0.100
    Stream size                 : 1.64 GiB (97%)
    Title                       : HD1080p [Web-DL]
    Writing library             : Zencoder Video Encoding System
    Default                     : Yes
    Forced                      : No
    Color range                 : Limited
    Color primaries             : BT.709
    Transfer characteristics    : BT.709
    Matrix coefficients         : BT.709

    Audio
    ID                          : 2
    Format                      : AAC
    Format/Info                 : Advanced Audio Codec
    Format profile              : LC
    Codec ID                    : A_AAC-2
    Duration                    : 47 min 25 s
    Bit rate                    : 128 kb/s
    Channel(s)                  : 2 channels
    Channel positions           : Front: L R
    Sampling rate               : 48.0 kHz
    Frame rate                  : 46.875 FPS (1024 SPF)
    Compression mode            : Lossy
    Stream size                 : 43.4 MiB (3%)
    Title                       : AAC_2.0_Web-DL_Eng
    Language                    : English
    Default                     : Yes
    Forced                      : No

    Text #1
    ID                          : 3
    Format                      : UTF-8
    Codec ID                    : S_TEXT/UTF8
    Codec ID/Info               : UTF-8 Plain Text
    Duration                    : 45 min 1 s
    Bit rate                    : 58 b/s
    Count of elements           : 542
    Stream size                 : 19.3 KiB (0%)
    Title                       : Sub_Esp
    Language                    : Spanish
    Default                     : Yes
    Forced                      : No

    Text #2
    ID                          : 4
    Format                      : UTF-8
    Codec ID                    : S_TEXT/UTF8
    Codec ID/Info               : UTF-8 Plain Text
    Duration                    : 44 min 57 s
    Bit rate                    : 63 b/s
    Count of elements           : 644
    Stream size                 : 21.0 KiB (0%)
    Title                       : Sub_Eng
    Language                    : English
    Default                     : No
    Forced                      : No

  • Peso: 1.96 GiB Aprox. c/u.

Sinopsis

Descargar Titanes (2018) Temporada 01 Web-DL 1080p Subtitulado; Mega, Google Drive. Un equipo de jóvenes superhéroes liderados por Nightwing (anteriormente el primer Robin de Batman) se forma para combatir el mal y otros peligros.

Temporada Completa 11/11 (¡Proximamente en Español Latino!)

Audio Ingles AAC 2.0 Web-DL

Ficha técnica

Video trailer de la película

Enlaces de descarga

Rip de Bluray

Descargar Titanes (2018) Temporada 01 Web-DL 1080p Subtitulado




Aportes de DPeliculasHDmega la pass es:dpeliculashdmega.org Aportes de CinemaniaHD la pass es:cinemaniahdd.com

Películas relacionadas

  • El Reino de los Supermanes (2019) 1080p Latino

    2019
    El Reino de los Supermanes (2019) 1080p Latino

    5.0 1h 27m 2019

    Descargar El Reino de los Supermanes (2019) 1080p Latino, Mega, Google Drive, Torrent. Superman ha muerto...

    Director: Sam Liu

    Género: Acción

    Actores: Trevor Devall

  • Verónica (2017) HD 1080p Español

    2017
    Verónica (2017) HD 1080p Español

    0.0 1h 45m 2017

    Descargar Verónica (2017) HD 1080p Español, Mega, Google Drive, Torrent. Está inspirada en el único...

    Director: Paco Plaza

    Género: Castellano

    Actores: Sonia Almarcha

  • El Reino (2018) HD 1080p Español

    2018
    El Reino (2018) HD 1080p Español

    0.0 2h 15m 2018

    Descargar El Reino (2018) HD 1080p Español, Mega, Google Drive, Torrent. Manuel (Antonio de la Torre),...

    Director: Rodrigo Sorogoyen

    Género: Castellano

    Actores: Paco Revilla

  • Campeones (2018) HD 1080p Español

    2018
    Campeones (2018) HD 1080p Español

    0.0 2h 4m 2018

    Descargar Campeones (2018) HD 1080p Español, Mega, Google Drive, Torrent. Marco, un entrenador profesional...

    Director: Javier Fesser

    Género: Castellano

    Actores: Yiyo Alonso

Comentarios 4
  • Adan Martinez - 02 diciembre, 2018

    Muy buena la serie y que gran aporte enserio, pero los enlaces de MEGA marcan error, sigan así buenos aportes.

  • oscar2030 - 20 octubre, 2018

    Muchas gracias por el capitulo 🙂 Que día se estrena el capitulo 2?

  • José - 19 octubre, 2018

    Para cuando podrian tener el Capitulo 2 y la tercera temporada de Daredevil?