Titanes (2018) Temporada 01 Web-DL 1080p Subtitulado

6.488 vistas
1 estrella2 estrellas3 estrellas4 estrellas5 estrellas (17 votos, promedio: 3,53 de 5)
Cargando…

Información de Titanes (2018) Temporada 01 Web-DL 1080p Subtitulado

Datos de la película

  • Calidad: WEBDL
  • Audio: Se especifica abajo de la Sinopsis
  • Subtitulos: Español Latino SRT - Ingles SRT
  • Resolución: 1920x1080p
  • Formato: MKV
  • Codec: H.264
  • Encoder: NTB
  • Mediainfo: Clic para Mostrar Datos Ver
  • Titans S01E05 (2018) Web-DL 1080p Subtitulado.mkv
    Format                      : Matroska
    Format version              : Version 4 / Version 2
    File size                   : 1.46 GiB
    Duration                    : 41 min 1 s
    Overall bit rate            : 5 089 kb/s
    Movie name                  : CinemaniaHDD.Net
    Encoded date                : UTC 2018-11-14 07:05:04
    Writing application         : mkvmerge v25.0.0 ('Prog Noir') 64-bit
    Writing library             : libebml v1.3.6 + libmatroska v1.4.9

    Video
    ID                          : 1
    Format                      : AVC
    Format/Info                 : Advanced Video Codec
    Format profile              : Baseline@L4
    Format settings             : 4 Ref Frames
    Format settings, CABAC      : No
    Format settings, RefFrames  : 4 frames
    Format settings, GOP        : M=1, N=48
    Codec ID                    : V_MPEG4/ISO/AVC
    Duration                    : 41 min 1 s
    Bit rate                    : 4 959 kb/s
    Width                       : 1 920 pixels
    Height                      : 1 080 pixels
    Display aspect ratio        : 16:9
    Frame rate mode             : Constant
    Frame rate                  : 23.976 (24000/1001) FPS
    Color space                 : YUV
    Chroma subsampling          : 4:2:0
    Bit depth                   : 8 bits
    Scan type                   : Progressive
    Bits/(Pixel*Frame)          : 0.100
    Stream size                 : 1.42 GiB (97%)
    Title                       : HD1080p [Web-DL]
    Writing library             : Zencoder Video Encoding System
    Default                     : Yes
    Forced                      : No
    Color range                 : Limited
    Color primaries             : BT.709
    Transfer characteristics    : BT.709
    Matrix coefficients         : BT.709

    Audio
    ID                          : 2
    Format                      : AAC
    Format/Info                 : Advanced Audio Codec
    Format profile              : LC
    Codec ID                    : A_AAC-2
    Duration                    : 41 min 1 s
    Bit rate                    : 128 kb/s
    Channel(s)                  : 2 channels
    Channel positions           : Front: L R
    Sampling rate               : 48.0 kHz
    Frame rate                  : 46.875 FPS (1024 SPF)
    Compression mode            : Lossy
    Stream size                 : 37.5 MiB (3%)
    Title                       : AAC_2.0_Web-DL_Eng
    Language                    : English
    Default                     : Yes
    Forced                      : No

    Text #1
    ID                          : 3
    Format                      : UTF-8
    Codec ID                    : S_TEXT/UTF8
    Codec ID/Info               : UTF-8 Plain Text
    Duration                    : 38 min 37 s
    Bit rate                    : 52 b/s
    Count of elements           : 478
    Stream size                 : 14.8 KiB (0%)
    Title                       : Sub_Esp
    Language                    : Spanish
    Default                     : Yes
    Forced                      : Yes

    Text #2
    ID                          : 4
    Format                      : UTF-8
    Codec ID                    : S_TEXT/UTF8
    Codec ID/Info               : UTF-8 Plain Text
    Duration                    : 38 min 33 s
    Bit rate                    : 63 b/s
    Count of elements           : 612
    Stream size                 : 17.8 KiB (0%)
    Title                       : Sub_Eng
    Language                    : English
    Default                     : No
    Forced                      : No

  • Peso: 1.96 GiB

Sinopsis

Descargar Titanes (2018) Temporada 01 Web-DL 1080p Subtitulado; Mega, Google Drive. Un equipo de jóvenes superhéroes liderados por Nightwing (anteriormente el primer Robin de Batman) se forma para combatir el mal y otros peligros.

Capitulo 5 Agregado con subtitulos (se actualizará el post conforme salgan)

Audio Ingles AAC 2.0 Web-DL

Ficha técnica

Video trailer de la película

Enlaces de descarga

Rip de Bluray

Descargar Titanes (2018) Temporada 01 Web-DL 1080p Subtitulado




Aportes de DPeliculasHDmega la pass es:dpeliculashdmega.org Aportes de CinemaniaHD la pass es:cinemaniahdd.com

Películas relacionadas

  • El Jefe de la Mafia: Gotti (2018) 1080p Latino

    2018
    El Jefe de la Mafia: Gotti (2018) 1080p Latino

    1.0 1h 50m 2018

    Descargar El Jefe de la Mafia: Gotti (2018) 1080p Latino, Mega, Google Drive. Biopic del famoso mafioso...

    Director: S. B. Weathersby

    Género: Crimen

    Actores: William DeMeo

  • El final del viaje (2018) 1080p Latino

    2018
    El final del viaje (2018) 1080p Latino

    1.0 1h 48m 2018

    Descargar El final del viaje (2018) 1080p Latino, Mega, Google Drive. Un grupo de soldados británicos...

    Director: Saul Dibb

    Género: Bélica

    Actores: Tom Sturridge

  • Mision: Imposible 2 (2000) 1080p Latino

    2000
    Mision: Imposible 2 (2000) 1080p Latino

    1.0 2h 3m 2000

    Descargar Mision: Imposible 2 (2000) 1080p Latino, Mega, Google Drive. El agente especial Ethan Hunt...

    Director: William H. Burton Jr.

    Género: Acción

    Actores: William Mapother

  • Mision: Imposible (1996) 1080p Latino

    1996
    Mision: Imposible (1996) 1080p Latino

    1.0 1h 50m 1996

    Mission: Impossible (1996) 1080p Latino, Mega, Google Drive. Ethan Hunt es un superespía capaz de resolver...

    Director: Nick Moore

    Género: Acción

    Actores: Ving Rhames

  • La piel fria (2017) 1080p Latino

    2017
    La piel fria (2017) 1080p Latino

    0.0 1h 41m 2017

    En una isla perdida en medio del océano, dos hombres se defienden, noche tras noche, resguardados en...

    Director: Xavier Gens

    Género: Ciencia ficción

    Actores: Winslow Iwaki

Comentarios 2
  • oscar2030 - 20 octubre, 2018

    Muchas gracias por el capitulo 🙂 Que día se estrena el capitulo 2?

  • José - 19 octubre, 2018

    Para cuando podrian tener el Capitulo 2 y la tercera temporada de Daredevil?