Tijuana (2019) Temporada 1 NF 1080p Latino

764 vistas
1 estrella2 estrellas3 estrellas4 estrellas5 estrellas (1 votos, promedio: 5,00 de 5)
Cargando…

Información de Tijuana (2019) Temporada 1 NF 1080p Latino

Datos de la película

  • Calidad: WEBDL
  • Audio: Se especifica abajo de la Sinopsis
  • Subtitulos: No
  • Resolución: 1920x1080
  • Formato: MKV
  • Codec: H.264
  • Encoder: Chesse92
  • Mediainfo: Clic para Mostrar Datos Ver
  • Tijuana S01E01.mkv
    Format                      : Matroska
    Format version              : Version 4
    File size                   : 1.50 GiB
    Duration                    : 39 min 50 s
    Overall bit rate mode       : Variable
    Overall bit rate            : 5 383 kb/s
    Movie name                  : Tijuana S01E01
    Encoded date                : UTC 2019-04-05 17:14:08 / UTC 2019-03-12 22:23:52
    Writing application         : mkvmerge v11.0.0 ('Alive') 64bit
    Writing library             : libebml v1.3.4 + libmatroska v1.4.5 / Lavf58.0.0

    Video
    ID                          : 1
    Format                      : AVC
    Format/Info                 : Advanced Video Codec
    Format profile              : [email protected]
    Format settings             : CABAC / 3 Ref Frames
    Format settings, CABAC      : Yes
    Format settings, ReFrames   : 3 frames
    Codec ID                    : V_MPEG4/ISO/AVC
    Duration                    : 39 min 50 s
    Bit rate mode               : Variable
    Bit rate                    : 4 640 kb/s
    Maximum bit rate            : 6 960 kb/s
    Width                       : 1 920 pixels
    Height                      : 1 080 pixels
    Display aspect ratio        : 16:9
    Frame rate mode             : Constant
    Frame rate                  : 23.976 (24000/1001) FPS
    Color space                 : YUV
    Chroma subsampling          : 4:2:0
    Bit depth                   : 8 bits
    Scan type                   : Progressive
    Bits/(Pixel*Frame)          : 0.093
    Stream size                 : 1.25 GiB (84%)
    Title                       : CinemaniaHDD
    Writing library             : x264 core 148 r2715 7e75228
    Encoding settings           : cabac=1 / ref=3 / deblock=1:0:0 / analyse=0x1:0x111 / me=umh / subme=10 / psy=1 / psy_rd=1.00:0.00 / mixed_ref=1 / me_range=24 / chroma_me=1 / trellis=2 / 8x8dct=0 / cqm=0 / deadzone=21,11 / fast_pskip=1 / chroma_qp_offset=-2 / threads=8 / lookahead_threads=1 / sliced_threads=0 / nr=0 / decimate=1 / interlaced=0 / bluray_compat=0 / stitchable=1 / constrained_intra=0 / bframes=2 / b_pyramid=0 / b_adapt=2 / b_bias=0 / direct=3 / weightb=1 / open_gop=0 / weightp=2 / keyint=48 / keyint_min=25 / scenecut=0 / intra_refresh=0 / rc_lookahead=48 / rc=2pass / mbtree=1 / bitrate=4640 / ratetol=1.0 / qcomp=0.50 / qpmin=6 / qpmax=51 / qpstep=4 / cplxblur=20.0 / qblur=0.5 / vbv_maxrate=6960 / vbv_bufsize=9280 / nal_hrd=vbr / filler=0 / ip_ratio=1.40 / aq=1:1.00
    Default                     : Yes
    Forced                      : No
    Statistics Tags Issue       : mkvmerge v11.0.0 ('Alive') 64bit 2019-04-05 17:14:08 / mkvmerge v11.0.0 ('Alive') 64bit 2019-04-05 17:14:08 / UTC 2019-03-12 22:23:52
    FromStats_BitRate           : 4612919
    FromStats_Duration          : 00:39:50.513000000
    FromStats_FrameCount        : 57315
    FromStats_StreamSize        : 1378405629

    Audio #1
    ID                          : 2
    Format                      : AC-3
    Format/Info                 : Audio Coding 3
    Commercial name             : Dolby Digital
    Codec ID                    : A_AC3
    Duration                    : 39 min 50 s
    Bit rate mode               : Constant
    Bit rate                    : 384 kb/s
    Channel(s)                  : 6 channels
    Channel layout              : L R C LFE Ls Rs
    Sampling rate               : 48.0 kHz
    Frame rate                  : 31.250 FPS (1536 SPF)
    Bit depth                   : 16 bits
    Compression mode            : Lossy
    Stream size                 : 109 MiB (7%)
    Title                       : Español latino [CinemaniaHDD]
    Language                    : Spanish
    Service kind                : Complete Main
    Default                     : Yes
    Forced                      : No
    Encoded date                : UTC 2019-03-01 23:49:06
    Statistics Tags Issue       : mkvmerge v11.0.0 ('Alive') 64bit 2019-04-05 17:14:08 / mkvmerge v11.0.0 ('Alive') 64bit 2019-04-05 17:14:08 / UTC 2019-03-12 22:23:52
    FromStats_BitRate           : 384000
    FromStats_Duration          : 00:39:50.816000000
    FromStats_FrameCount        : 74713
    FromStats_StreamSize        : 114759168

    Audio #2
    ID                          : 3
    Format                      : AC-3
    Format/Info                 : Audio Coding 3
    Commercial name             : Dolby Digital
    Codec ID                    : A_AC3
    Duration                    : 39 min 50 s
    Bit rate mode               : Constant
    Bit rate                    : 384 kb/s
    Channel(s)                  : 6 channels
    Channel layout              : L R C LFE Ls Rs
    Sampling rate               : 48.0 kHz
    Frame rate                  : 31.250 FPS (1536 SPF)
    Bit depth                   : 16 bits
    Compression mode            : Lossy
    Stream size                 : 109 MiB (7%)
    Title                       : Inglés [CinemaniaHDD]
    Language                    : English
    Service kind                : Complete Main
    Default                     : No
    Forced                      : No
    Encoded date                : UTC 2019-03-12 22:23:52
    Statistics Tags Issue       : mkvmerge v11.0.0 ('Alive') 64bit 2019-04-05 17:14:08 / mkvmerge v11.0.0 ('Alive') 64bit 2019-04-05 17:14:08 / UTC 2019-03-12 22:23:52
    FromStats_BitRate           : 384000
    FromStats_Duration          : 00:39:50.816000000
    FromStats_FrameCount        : 74713
    FromStats_StreamSize        : 114759168

    Text
    ID                          : 4
    Format                      : UTF-8
    Codec ID                    : S_TEXT/UTF8
    Codec ID/Info               : UTF-8 Plain Text
    Title                       : Español latino [CinemaniaHDD]
    Language                    : Spanish
    Default                     : No
    Forced                      : No
    Statistics Tags Issue       : mkvmerge v11.0.0 ('Alive') 64bit 2019-04-05 17:14:08 / mkvmerge v11.0.0 ('Alive') 64bit 2019-04-05 17:14:08 / UTC 2019-03-12 22:23:52
    FromStats_BitRate           : 69
    FromStats_Duration          : 00:38:25.887000000
    FromStats_FrameCount        : 591
    FromStats_StreamSize        : 20121

  • Peso: 15 GB TOTAL

Sinopsis

Después del asesinato de un político, los periodistas locales del Frente Tijuana intentan descubrir la verdad detrás del asesinato mientras ponen en riesgo sus vidas.

Ficha técnica

  • Titulo original: Tijuana
  • Fecha de lanzamiento: 05-04-2019
  • Género: Crimen, Drama, Series
  • Puntuación: 5.0 1 votos
  • Duración:
    0h 40m

Video trailer de la película

Enlaces de descarga

Rip de Bluray

Descargar Tijuana (2019) Temporada 1 NF 1080p Latino




Aportes de DPeliculasHDmega la pass es:dpeliculashdmega.org Aportes de CinemaniaHD la pass es:cinemaniahdd.com
Guardado en : Crimen , Drama , Series

Películas relacionadas

Comentarios 0