×

¿Problemas para descargar con Mozilla, EDGE? Deshabilita la opción "Abrir vinculos en una pestaña nueva" tal como lo muestra ésta imagen.

Cola de tigre (2020) NF WEB-DL 1080p Subtitulado

1.108 vistas

Información de Cola de tigre (2020) NF WEB-DL 1080p Subtitulado

Datos de la película

  • Calidad: WEBDL
  • Audio: Ingles AC3 5.1 Netflix
  • Subtitulos: Español Latino SRT - Ingles SRT
  • Resolución: 1920x1080p
  • Formato: MKV
  • Codec: H.264
  • Encoder: CinemaniaHD
  • Mediainfo: Clic para Mostrar Datos Ver
  • Cola de Tigre (2020) NF Web-DL 1080p Subtitulado.mkv
    Format                      : Matroska
    Format version              : Version 4
    File size                   : 5.08 GiB
    Duration                    : 1 h 31 min
    Overall bit rate mode       : Variable
    Overall bit rate            : 7 959 kb/s
    Movie name                  : Tigertail (2020) CinemaniaHDD.Net
    Encoded date                : UTC 2020-04-10 09:48:51
    Writing application         : mkvmerge v42.0.0 ('Overtime') 64-bit
    Writing library             : libebml v1.3.10 + libmatroska v1.5.2
    Attachments                 : CINEMANIAHD.png

    Video
    ID                          : 1
    Format                      : AVC
    Format/Info                 : Advanced Video Codec
    Format profile              : Main@L4
    Format settings             : CABAC / 3 Ref Frames
    Format settings, CABAC      : Yes
    Format settings, ReFrames   : 3 frames
    Codec ID                    : V_MPEG4/ISO/AVC
    Duration                    : 1 h 31 min
    Bit rate mode               : Variable
    Bit rate                    : 7 500 kb/s
    Maximum bit rate            : 11.2 Mb/s
    Width                       : 1 920 pixels
    Height                      : 1 080 pixels
    Display aspect ratio        : 16:9
    Frame rate mode             : Constant
    Frame rate                  : 24.000 FPS
    Color space                 : YUV
    Chroma subsampling          : 4:2:0
    Bit depth                   : 8 bits
    Scan type                   : Progressive
    Bits/(Pixel*Frame)          : 0.151
    Stream size                 : 4.67 GiB (92%)
    Title                       : Web HD1080p [CinemaniaHDD]
    Writing library             : x264 core 148 r2717 0d2410d
    Encoding settings           : cabac=1 / ref=3 / deblock=1:0:0 / analyse=0x1:0x111 / me=umh / subme=10 / psy=1 / psy_rd=1.00:0.00 / mixed_ref=1 / me_range=24 / chroma_me=1 / trellis=2 / 8x8dct=0 / cqm=0 / deadzone=21,11 / fast_pskip=1 / chroma_qp_offset=-2 / threads=6 / lookahead_threads=1 / sliced_threads=0 / nr=0 / decimate=1 / interlaced=0 / bluray_compat=0 / stitchable=1 / constrained_intra=0 / bframes=2 / b_pyramid=0 / b_adapt=2 / b_bias=0 / direct=3 / weightb=1 / open_gop=0 / weightp=2 / keyint=250 / keyint_min=24 / scenecut=0 / intra_refresh=0 / rc_lookahead=48 / rc=2pass / mbtree=1 / bitrate=7500 / ratetol=1.0 / qcomp=0.50 / qpmin=6 / qpmax=51 / qpstep=4 / cplxblur=20.0 / qblur=0.5 / vbv_maxrate=11250 / vbv_bufsize=15000 / nal_hrd=vbr / filler=0 / ip_ratio=1.40 / aq=1:1.00
    Default                     : Yes
    Forced                      : Yes

    Audio
    ID                          : 2
    Format                      : E-AC-3
    Format/Info                 : Enhanced AC-3
    Commercial name             : Dolby Digital Plus
    Codec ID                    : A_EAC3
    Duration                    : 1 h 31 min
    Bit rate mode               : Constant
    Bit rate                    : 640 kb/s
    Channel(s)                  : 6 channels
    Channel layout              : L R C LFE Ls Rs
    Sampling rate               : 48.0 kHz
    Frame rate                  : 31.250 FPS (1536 SPF)
    Compression mode            : Lossy
    Stream size                 : 418 MiB (8%)
    Title                       : Ingles [CinemaniaHDD]
    Language                    : English
    Service kind                : Complete Main
    Default                     : Yes
    Forced                      : No

    Text #1
    ID                          : 3
    Format                      : UTF-8
    Codec ID                    : S_TEXT/UTF8
    Codec ID/Info               : UTF-8 Plain Text
    Duration                    : 1 h 30 min
    Bit rate                    : 30 b/s
    Count of elements           : 698
    Stream size                 : 20.2 KiB (0%)
    Title                       : Español-SRT [CinemaniaHDD]
    Language                    : Spanish
    Default                     : Yes
    Forced                      : Yes

    Text #2
    ID                          : 4
    Format                      : UTF-8
    Codec ID                    : S_TEXT/UTF8
    Codec ID/Info               : UTF-8 Plain Text
    Duration                    : 1 h 26 min
    Bit rate                    : 36 b/s
    Count of elements           : 795
    Stream size                 : 23.4 KiB (0%)
    Title                       : Ingles-SRT [CinemaniaHDD]
    Language                    : English
    Default                     : No
    Forced                      : No

  • Peso: 5.08 GiB

Sinopsis

Descargar Cola de tigre (2020) NF WEB-DL 1080p Subtitulado. Un hombre reflexiona sobre el amor perdido de su juventud en un perosnal viaje al pasado, desde la década de 1950 en Taiwán hasta la actualidad en Nueva York. La historia multigeneracional de una familia que abarca varios continentes y temas como el arrepentimiento, el anhelo, la pasión y la represión.

Ficha técnica

  • Titulo original: Tigertail
  • Fecha de lanzamiento: 10-04-2020 (United States of America)
  • Director: Alan Yang
  • Género: Drama, Netflix

Video trailer de la película

Enlaces de descarga

Rip de Bluray

Descargar Cola de tigre (2020) NF WEB-DL 1080p Subtitulado




Aportes de DPeliculasHDmega la pass es:dpeliculashdmega.org Aportes de CinemaniaHD la pass es:cinemaniahdd.com
Guardado en : Drama , Netflix

Películas relacionadas

descargar Cola de tigre (2020) NF WEB-DL 1080p Subtitulado WEBDL 1080p gratis, Cola de tigre (2020) NF WEB-DL 1080p Subtitulado WEBDL mega 1 link, Cola de tigre (2020) NF WEB-DL 1080p Subtitulado WEBDL pelicula completa, descargar Cola de tigre (2020) NF WEB-DL 1080p Subtitulado WEBDL gratis en mega.

Cola de tigre (2020) NF WEB-DL 1080p Subtitulado pelicula full hd, Cola de tigre (2020) NF WEB-DL 1080p Subtitulado mega latino, Cola de tigre (2020) NF WEB-DL 1080p Subtitulado 4k latino, Cola de tigre (2020) NF WEB-DL 1080p Subtitulado pelicula completa, Cola de tigre (2020) NF WEB-DL 1080p Subtitulado descargar gratis, descargar Cola de tigre (2020) NF WEB-DL 1080p Subtitulado pelicula latino, Cola de tigre (2020) NF WEB-DL 1080p Subtitulado 1 link mega, Cola de tigre (2020) NF WEB-DL 1080p Subtitulado 1 link google drive, Cola de tigre (2020) NF WEB-DL 1080p Subtitulado hd 1080p latino.
Comentarios 0