Tiger (2018) 1080p Latino

579 vistas
1 estrella2 estrellas3 estrellas4 estrellas5 estrellas (1 votos, promedio: 1,00 de 5)
Cargando…

Información de Tiger (2018) 1080p Latino

Datos de la película

  • Calidad: WEBDL
  • Audio: Español Latino AC3 5.1 Netflix - Ingles AC3 5.1 Netflix
  • Subtitulos: Español Latino SRT
  • Resolución: 1920x1080p
  • Formato: MKV
  • Codec: H.264
  • Encoder: CM
  • Mediainfo: Clic para Mostrar Datos Ver
  • Tiger (2018) Web-DL 1080p Latino.mkv
    Format                      : Matroska
    Format version              : Version 4 / Version 2
    File size                   : 3.03 GiB
    Duration                    : 1 h 35 min
    Overall bit rate mode       : Variable
    Overall bit rate            : 4 559 kb/s
    Movie name                  : CinemaniaHDD.Net
    Encoded date                : UTC 2018-11-14 01:50:08
    Writing application         : mkvmerge v25.0.0 ('Prog Noir') 64-bit
    Writing library             : libebml v1.3.6 + libmatroska v1.4.9

    Video
    ID                          : 1
    Format                      : AVC
    Format/Info                 : Advanced Video Codec
    Format profile              : Main@L4
    Format settings             : CABAC / 3 Ref Frames
    Format settings, CABAC      : Yes
    Format settings, RefFrames  : 3 frames
    Codec ID                    : V_MPEG4/ISO/AVC
    Duration                    : 1 h 35 min
    Bit rate mode               : Variable
    Bit rate                    : 3 830 kb/s
    Maximum bit rate            : 5 745 kb/s
    Width                       : 1 920 pixels
    Height                      : 1 080 pixels
    Display aspect ratio        : 16:9
    Frame rate mode             : Constant
    Frame rate                  : 23.976 (24000/1001) FPS
    Color space                 : YUV
    Chroma subsampling          : 4:2:0
    Bit depth                   : 8 bits
    Scan type                   : Progressive
    Bits/(Pixel*Frame)          : 0.077
    Stream size                 : 2.52 GiB (83%)
    Title                       : HD1080p [Web-DL]
    Writing library             : x264 core 148 r2715 7e75228
    Encoding settings           : cabac=1 / ref=3 / deblock=1:0:0 / analyse=0x1:0x111 / me=umh / subme=10 / psy=1 / psy_rd=1.00:0.00 / mixed_ref=1 / me_range=24 / chroma_me=1 / trellis=2 / 8x8dct=0 / cqm=0 / deadzone=21,11 / fast_pskip=1 / chroma_qp_offset=-2 / threads=6 / lookahead_threads=1 / sliced_threads=0 / nr=0 / decimate=1 / interlaced=0 / bluray_compat=0 / stitchable=1 / constrained_intra=0 / bframes=2 / b_pyramid=0 / b_adapt=2 / b_bias=0 / direct=3 / weightb=1 / open_gop=0 / weightp=2 / keyint=48 / keyint_min=25 / scenecut=0 / intra_refresh=0 / rc_lookahead=48 / rc=2pass / mbtree=1 / bitrate=3830 / ratetol=1.0 / qcomp=0.50 / qpmin=6 / qpmax=51 / qpstep=4 / cplxblur=20.0 / qblur=0.5 / vbv_maxrate=5745 / vbv_bufsize=7660 / nal_hrd=vbr / filler=0 / ip_ratio=1.40 / aq=1:1.00
    Default                     : Yes
    Forced                      : No

    Audio #1
    ID                          : 2
    Format                      : AC-3
    Format/Info                 : Audio Coding 3
    Format settings, Endianness : Big
    Codec ID                    : A_AC3
    Duration                    : 1 h 35 min
    Bit rate mode               : Constant
    Bit rate                    : 384 kb/s
    Channel(s)                  : 6 channels
    Channel positions           : Front: L C R, Side: L R, LFE
    Sampling rate               : 48.0 kHz
    Frame rate                  : 31.250 FPS (1536 SPF)
    Bit depth                   : 16 bits
    Compression mode            : Lossy
    Stream size                 : 262 MiB (8%)
    Title                       : AC3_5.1_NF_Esp
    Language                    : Spanish
    Service kind                : Complete Main
    Default                     : Yes
    Forced                      : No

    Audio #2
    ID                          : 3
    Format                      : AC-3
    Format/Info                 : Audio Coding 3
    Format settings, Endianness : Big
    Codec ID                    : A_AC3
    Duration                    : 1 h 35 min
    Bit rate mode               : Constant
    Bit rate                    : 384 kb/s
    Channel(s)                  : 6 channels
    Channel positions           : Front: L C R, Side: L R, LFE
    Sampling rate               : 48.0 kHz
    Frame rate                  : 31.250 FPS (1536 SPF)
    Bit depth                   : 16 bits
    Compression mode            : Lossy
    Stream size                 : 262 MiB (8%)
    Title                       : AC3_5.1_NF_Eng
    Language                    : English
    Service kind                : Complete Main
    Default                     : No
    Forced                      : No

    Text
    ID                          : 4
    Format                      : UTF-8
    Codec ID                    : S_TEXT/UTF8
    Codec ID/Info               : UTF-8 Plain Text
    Duration                    : 1 h 34 min
    Bit rate                    : 52 b/s
    Count of elements           : 1214
    Stream size                 : 36.5 KiB (0%)
    Title                       : Sub_Esp
    Language                    : Spanish
    Default                     : Yes
    Forced                      : No

    Menu
    00:00:00.000                : :Capítulo 01
    00:05:00.000                : :Capítulo 02
    00:10:00.000                : :Capítulo 03
    00:15:00.000                : :Capítulo 04
    00:20:00.000                : :Capítulo 05
    00:25:00.000                : :Capítulo 06
    00:30:00.000                : :Capítulo 07
    00:35:00.000                : :Capítulo 08
    00:40:00.000                : :Capítulo 09
    00:45:00.000                : :Capítulo 10
    00:50:00.000                : :Capítulo 11
    00:55:00.000                : :Capítulo 12
    01:00:00.000                : :Capítulo 13
    01:05:00.000                : :Capítulo 14
    01:10:00.000                : :Capítulo 15
    01:15:00.000                : :Capítulo 16
    01:20:00.000                : :Capítulo 17
    01:25:00.000                : :Capítulo 18
    01:30:00.000                : :Capítulo 19
    01:35:00.000                : :Capítulo 20

  • Peso: 3.03 GiB

Sinopsis

Descargar Tiger (2018) 1080p Latino, Mega, Google Drive. Tiger se inspira en la historia real de Pardeep Nagra, un hombre al que le fue prohibido el deporte del boxeo debido a sus creencias religiosas. Tiger sigue el viaje de Pardeep que, con el apoyo de su entrenador y mentor (Mickey Rourke), hace lo que cualquier luchador fuerte haría: contraatacar.

Ficha técnica

  • Titulo original: Tiger
  • Fecha de lanzamiento: 30-11-2018 (United States of America)
  • Director: Alister Grierson
  • Género: Drama
  • Puntuación: 1.0 1 votos
  • Duración:
    1h 40m

Video trailer de la película

Enlaces de descarga

Aportes de DPeliculasHDmega la pass es:dpeliculashdmega.org Aportes de CinemaniaHD la pass es:cinemaniahdd.com
Guardado en : Drama

Películas relacionadas

  • Roma (2018) Web-DL 1080p Latino

    2018
    Roma (2018) Web-DL 1080p Latino

    3.7 2h 14m 2018

    Descargar Roma (2018) Web-DL 1080p Latino, Mega, Google Drive, Torrent. Cleo (Yalitza Aparicio) es la...

    Director: Natalia Moguel

    Género: Drama

    Actores: Zarela Lizbeth Chinolla Arellano

  • Godzilla (2014) 1080p Latino

    2014
    Godzilla (2014) 1080p Latino

    0.0 2h 3m 2014

    Descargar Godzilla (2014) 1080p Latino, Mega, Google Drive, Torrent. Gareth Edwards dirige este "reboot",...

    Director: Jessica Clothier

    Género: Acción

    Actores: Yuki Morita

  • Godzilla (2014) Full 1080p Latino

    2014
    Godzilla (2014) Full 1080p Latino

    4.2 2h 3m 2014

    Descargar Godzilla (2014) Full 1080p Latino, Mega, Google Drive, Torrent. Gareth Edwards dirige este...

    Director: Jessica Clothier

    Género: Acción

    Actores: Yuki Morita

Comentarios 0