×

¿Problemas para descargar con Mozilla, EDGE? Deshabilita la opción "Abrir vinculos en una pestaña nueva" tal como lo muestra ésta imagen.

Tierra incógnita (2022) Temporada 1 WEB-DL 1080p Latino

80 vistas

Información de Tierra incógnita (2022) Temporada 1 WEB-DL 1080p Latino

Datos de la película

  • Calidad: WEBDL
  • Audio: Se especifica abajo de la Sinopsis
  • Subtitulos: Español Latino SRT
  • Resolución: 1920x1080p
  • Formato: MKV
  • Codec: H.264
  • Encoder: Melkor
  • Mediainfo: Clic para Mostrar Datos Ver
  • Tierra Incognita S01E01 (2022) WebDL 1080p Latino.mkv
    Format                      : Matroska
    Format version              : Version 4
    File size                   : 1.85 GiB
    Duration                    : 38 min 5 s
    Overall bit rate mode       : Variable
    Overall bit rate            : 6 939 kb/s
    Movie name                  : CinemaniaHDD.Net
    Encoded date                : UTC 2024-01-10 05:29:58
    Writing application         : mkvmerge v56.1.0 ('My Friend') 64-bit
    Writing library             : libebml v1.4.2 + libmatroska v1.6.4
    Attachments                 : CINEMANIAHD.png
    Site                        : CinemaniaHDD.Net
    Uploader                    : Melkor

    Video
    ID                          : 1
    Format                      : AVC
    Format/Info                 : Advanced Video Codec
    Format profile              : High@L4
    Format settings             : CABAC / 4 Ref Frames
    Format settings, CABAC      : Yes
    Format settings, Reference  : 4 frames
    Codec ID                    : V_MPEG4/ISO/AVC
    Duration                    : 38 min 5 s
    Bit rate mode               : Variable
    Bit rate                    : 6 681 kb/s
    Maximum bit rate            : 12.7 Mb/s
    Width                       : 1 920 pixels
    Height                      : 1 080 pixels
    Display aspect ratio        : 16:9
    Frame rate mode             : Constant
    Frame rate                  : 23.976 (24000/1001) FPS
    Color space                 : YUV
    Chroma subsampling          : 4:2:0
    Bit depth                   : 8 bits
    Scan type                   : Progressive
    Bits/(Pixel*Frame)          : 0.134
    Stream size                 : 1.78 GiB (96%)
    Title                       : WEB HD1080p [CinemaniaHDD]
    Default                     : Yes
    Forced                      : Yes
    Color range                 : Limited
    Color primaries             : BT.709
    Transfer characteristics    : BT.709
    Matrix coefficients         : BT.709

    Audio
    ID                          : 2
    Format                      : E-AC-3
    Format/Info                 : Enhanced AC-3
    Commercial name             : Dolby Digital Plus
    Codec ID                    : A_EAC3
    Duration                    : 38 min 5 s
    Bit rate mode               : Constant
    Bit rate                    : 256 kb/s
    Channel(s)                  : 6 channels
    Channel layout              : L R C LFE Ls Rs
    Sampling rate               : 48.0 kHz
    Frame rate                  : 31.250 FPS (1536 SPF)
    Compression mode            : Lossy
    Stream size                 : 69.7 MiB (4%)
    Title                       : Español Latino [CinemaniaHDD]
    Language                    : Spanish
    Service kind                : Complete Main
    Default                     : Yes
    Forced                      : Yes

    Text
    ID                          : 3
    Format                      : UTF-8
    Codec ID                    : S_TEXT/UTF8
    Codec ID/Info               : UTF-8 Plain Text
    Duration                    : 37 min 56 s
    Bit rate                    : 42 b/s
    Count of elements           : 357
    Stream size                 : 11.9 KiB (0%)
    Title                       : Español-SRT [CinemaniaHDD]
    Language                    : Spanish
    Default                     : No
    Forced                      : No

  • Peso: 1.8 GiB -- 13.8 GiB -- 8 Chapters

Sinopsis

Descargar Tierra incógnita (2022) Temporada 1 WEB-DL 1080p Latino. Sigue los pasos de Eric Dalaras, un adolescente que descubre un mundo escalofriante mientras busca la verdad detrás de la misteriosa desaparición de sus padres ocurrida ocho años atrás. Criado por sus abuelos maternos junto a su hermana Uma, Eric decide escapar de su casa y regresar al pueblo de su infancia, Cabo Qwert, para encontrar respuestas en el parque de diversiones de terror Tierra Incógnita, donde sus padres fueron vistos por última vez.

Audio Español Latino EAC3 5.1 D+

Ficha técnica

Video trailer de la película

Enlaces de descarga

Rip de Bluray

Descargar Tierra incógnita (2022) Temporada 1 WEB-DL 1080p Latino




Aportes de DPeliculasHDmega la pass es:dpeliculashdmega.org Aportes de CinemaniaHD la pass es:cinemaniahdd.com Aportes recientes:cinemaniahdd.net

Películas relacionadas

  • Chucky (2023) Temporada 3 WEB-DL 1080p Latino

    Chucky (2023) Temporada 3 WEB-DL 1080p Latino

    2021
    Chucky (2023) Temporada 3 WEB-DL 1080p Latino

    0h 42m 2021

    El infame Chucky se abre paso a cuchilladas hacia la televisión en una nueva y mortífera serie escrita...

    Director: Nick Antosca

    Género: Crimen

    Actores: Zackary Arthur

  • Good Burger 2 (2023) HD 1080p Latino

    Good Burger 2 (2023) HD 1080p Latino

    2023
    Good Burger 2 (2023) HD 1080p Latino

    1h 31m 2023

    Descargar Good Burger 2 (2023) HD 1080p Latino. Después de que su último invento falla, Ed le da la...

    Director: Ross Novie

    Género: Comedia

    Actores: Zoe Saldana

  • Good Burger 2 (2023) PLACEBO Full HD 1080p Latino

    Good Burger 2 (2023) PLACEBO Full HD 1080p Latino

    2023
    Good Burger 2 (2023) PLACEBO Full HD 1080p Latino

    1h 31m 2023

    Descargar Good Burger 2 (2023) PLACEBO Full HD 1080p Latino. Después de que su último invento falla,...

    Director: Ross Novie

    Género: Comedia

    Actores: Zoe Saldana

descargar Tierra incógnita (2022) Temporada 1 WEB-DL 1080p Latino WEBDL 1080p gratis, Tierra incógnita (2022) Temporada 1 WEB-DL 1080p Latino WEBDL mega 1 link, Tierra incógnita (2022) Temporada 1 WEB-DL 1080p Latino WEBDL serie completa, descargar Tierra incógnita (2022) Temporada 1 WEB-DL 1080p Latino WEBDL gratis en mega.

Tierra incógnita (2022) Temporada 1 WEB-DL 1080p Latino pelicula full hd, Tierra incógnita (2022) Temporada 1 WEB-DL 1080p Latino mega latino, Tierra incógnita (2022) Temporada 1 WEB-DL 1080p Latino 4k latino, Tierra incógnita (2022) Temporada 1 WEB-DL 1080p Latino pelicula completa, Tierra incógnita (2022) Temporada 1 WEB-DL 1080p Latino descargar gratis, descargar Tierra incógnita (2022) Temporada 1 WEB-DL 1080p Latino pelicula latino, Tierra incógnita (2022) Temporada 1 WEB-DL 1080p Latino 1 link mega, Tierra incógnita (2022) Temporada 1 WEB-DL 1080p Latino 1 link google drive, Tierra incógnita (2022) Temporada 1 WEB-DL 1080p Latino hd 1080p latino.
Comentarios 0