×

¿Problemas para descargar con Mozilla, EDGE? Deshabilita la opción "Abrir vinculos en una pestaña nueva" tal como lo muestra ésta imagen.

Tiempos Violentos (1994) PLACEBO 1080p Latino

1.886 vistas

Información de Tiempos Violentos (1994) PLACEBO 1080p Latino

Datos de la película

  • Calidad: Full 1080p
  • Audio: Español Latino AC3 2.0 BLURAY - Ingles DTS 5.1 BLURAY
  • Subtitulos: Español Latino PGS - Ingles PGS
  • Resolución: 1920x1080
  • Formato: MKV
  • Codec: H.264
  • Encoder: cinemaniahdd
  • Mediainfo: Clic para Mostrar Datos Ver
  • Tiempos Violentos (1994) PLACEBO 1080p Latino.mkv
    Format                      : Matroska
    Format version              : Version 4
    File size                   : 8.40 GiB
    Duration                    : 2 h 34 min
    Overall bit rate mode       : Variable
    Overall bit rate            : 7 789 kb/s
    Movie name                  : Tiempos Violentos (1994) - CinemaniaHDD.Net
    Encoded date                : UTC 2019-09-10 20:33:37
    Writing application         : mkvmerge v35.0.0 ('All The Love In The World') 64-bit
    Writing library             : libebml v1.3.9 + libmatroska v1.5.2

    Video
    ID                          : 1
    Format                      : AVC
    Format/Info                 : Advanced Video Codec
    Format profile              : High@L4.1
    Format settings             : CABAC / 4 Ref Frames
    Format settings, CABAC      : Yes
    Format settings, ReFrames   : 4 frames
    Codec ID                    : V_MPEG4/ISO/AVC
    Duration                    : 2 h 34 min
    Bit rate                    : 3 583 kb/s
    Width                       : 1 920 pixels
    Height                      : 1 080 pixels
    Display aspect ratio        : 16:9
    Frame rate mode             : Constant
    Frame rate                  : 23.976 (24000/1001) FPS
    Color space                 : YUV
    Chroma subsampling          : 4:2:0
    Bit depth                   : 8 bits
    Scan type                   : Progressive
    Bits/(Pixel*Frame)          : 0.072
    Stream size                 : 3.86 GiB (46%)
    Title                       : CinemaniaHDD
    Writing library             : x264 core 157 r2935 545de2f
    Encoding settings           : cabac=1 / ref=4 / deblock=1:0:0 / analyse=0x3:0x133 / me=tesa / subme=11 / psy=1 / psy_rd=1.00:0.00 / mixed_ref=1 / me_range=24 / chroma_me=1 / trellis=2 / 8x8dct=1 / cqm=0 / deadzone=21,11 / fast_pskip=0 / chroma_qp_offset=-2 / threads=34 / lookahead_threads=8 / sliced_threads=0 / nr=0 / decimate=1 / interlaced=0 / bluray_compat=0 / constrained_intra=0 / bframes=16 / b_pyramid=2 / b_adapt=2 / b_bias=0 / direct=3 / weightb=1 / open_gop=0 / weightp=2 / keyint=240 / keyint_min=24 / scenecut=40 / intra_refresh=0 / rc_lookahead=60 / rc=crf / mbtree=1 / crf=20.0 / qcomp=0.60 / qpmin=0 / qpmax=69 / qpstep=4 / vbv_maxrate=62500 / vbv_bufsize=78125 / crf_max=0.0 / nal_hrd=none / filler=0 / ip_ratio=1.40 / aq=1:1.00
    Default                     : Yes
    Forced                      : No
    Color range                 : Limited
    Color primaries             : BT.709
    Transfer characteristics    : BT.709
    Matrix coefficients         : BT.709

    Audio #1
    ID                          : 2
    Format                      : AC-3
    Format/Info                 : Audio Coding 3
    Commercial name             : Dolby Digital
    Codec ID                    : A_AC3
    Duration                    : 2 h 34 min
    Bit rate mode               : Constant
    Bit rate                    : 256 kb/s
    Channel(s)                  : 2 channels
    Channel layout              : L R
    Sampling rate               : 48.0 kHz
    Frame rate                  : 31.250 FPS (1536 SPF)
    Bit depth                   : 16 bits
    Compression mode            : Lossy
    Stream size                 : 283 MiB (3%)
    Title                       : Español latino [CinemaniaHDD]
    Language                    : Spanish
    Service kind                : Complete Main
    Default                     : Yes
    Forced                      : No

    Audio #2
    ID                          : 3
    Format                      : DTS XLL
    Format/Info                 : Digital Theater Systems
    Commercial name             : DTS-HD Master Audio
    Codec ID                    : A_DTS
    Duration                    : 2 h 34 min
    Bit rate mode               : Variable
    Bit rate                    : 3 898 kb/s
    Channel(s)                  : 6 channels
    Channel layout              : C L R Ls Rs LFE
    Sampling rate               : 48.0 kHz
    Frame rate                  : 93.750 FPS (512 SPF)
    Bit depth                   : 24 bits
    Compression mode            : Lossless
    Stream size                 : 4.20 GiB (50%)
    Title                       : Inglés [CinemaniaHDD]
    Language                    : English
    Default                     : No
    Forced                      : No

    Text #1
    ID                          : 4
    Format                      : UTF-8
    Codec ID                    : S_TEXT/UTF8
    Codec ID/Info               : UTF-8 Plain Text
    Duration                    : 2 h 6 min
    Bit rate                    : 0 b/s
    Count of elements           : 9
    Stream size                 : 251 Bytes (0%)
    Title                       : Forzados [CinemaniaHDD]
    Language                    : Spanish
    Default                     : Yes
    Forced                      : Yes

    Text #2
    ID                          : 5
    Format                      : UTF-8
    Codec ID                    : S_TEXT/UTF8
    Codec ID/Info               : UTF-8 Plain Text
    Duration                    : 2 h 28 min
    Bit rate                    : 62 b/s
    Count of elements           : 1862
    Stream size                 : 67.9 KiB (0%)
    Title                       : Español latino [CinemaniaHDD]
    Language                    : Spanish
    Default                     : No
    Forced                      : No

    Text #3
    ID                          : 6
    Format                      : PGS
    Muxing mode                 : zlib
    Codec ID                    : S_HDMV/PGS
    Codec ID/Info               : Picture based subtitle format used on BDs/HD-DVDs
    Duration                    : 2 h 28 min
    Bit rate                    : 54.8 kb/s
    Count of elements           : 3730
    Stream size                 : 58.4 MiB (1%)
    Title                       : Español latino [CinemaniaHDD]
    Language                    : Spanish
    Default                     : No
    Forced                      : No

    Text #4
    ID                          : 7
    Format                      : PGS
    Muxing mode                 : zlib
    Codec ID                    : S_HDMV/PGS
    Codec ID/Info               : Picture based subtitle format used on BDs/HD-DVDs
    Duration                    : 2 h 28 min
    Bit rate                    : 71.0 kb/s
    Count of elements           : 4090
    Stream size                 : 75.5 MiB (1%)
    Title                       : Inglés [CinemaniaHDD]
    Language                    : English
    Default                     : No
    Forced                      : No

    Menu
    00:00:00.000                : en:Prologue
    00:07:05.842                : en:Royale with Cheese
    00:14:25.406                : en:Ezekiel 25:17
    00:21:08.475                : en:Boxers Don't Have an Old-Timers' Day
    00:31:21.671                : en:Son of a Preacher Man
    00:34:11.758                : en:Jack Rabbit Slim's
    00:49:56.993                : en:Girl, You'll Be a Woman Soon
    00:54:49.286                : en:Adrenaline
    01:03:31.599                : en:Captain Koons' Story
    01:14:53.071                : en:I Wish I Had a Pot
    01:22:38.745                : en:Where's My Watch?
    01:33:53.336                : en:Flowers on the Wall
    01:37:40.271                : en:Bring out the Gimp
    01:49:15.799                : en:Zed's Dead, Baby. Zed's Dead.
    01:55:11.404                : en:I Shot Marvin in the Face
    02:13:21.868                : en:The Shepherd
    02:34:26.840                : en:

     

  • Peso: 8.40 GiB

Sinopsis

Descargar Tiempos Violentos (1994) PLACEBO 1080p Latino, Jules y Vincent, dos asesinos a sueldo con muy pocas luces, trabajan para Marsellus Wallace. Vincent le confiesa a Jules que Marsellus le ha pedido que cuide de Mia, su mujer. Jules le recomienda prudencia porque es muy peligroso sobrepasarse con la novia del jefe. Cuando llega la hora de trabajar, ambos deben ponerse manos a la obra. Su misión: recuperar un misterioso maletín.

Ficha técnica

Video trailer de la película

Enlaces de descarga

Rip de Bluray

Descargar Tiempos Violentos (1994) PLACEBO 1080p Latino




Aportes de DPeliculasHDmega la pass es:dpeliculashdmega.org Aportes de CinemaniaHD la pass es:cinemaniahdd.com

Películas relacionadas

descargar Tiempos Violentos (1994) PLACEBO 1080p Latino Full 1080p 1080p gratis, Tiempos Violentos (1994) PLACEBO 1080p Latino Full 1080p mega 1 link, Tiempos Violentos (1994) PLACEBO 1080p Latino Full 1080p pelicula completa, descargar Tiempos Violentos (1994) PLACEBO 1080p Latino Full 1080p gratis en mega.

Tiempos Violentos (1994) PLACEBO 1080p Latino pelicula full hd, Tiempos Violentos (1994) PLACEBO 1080p Latino mega latino, Tiempos Violentos (1994) PLACEBO 1080p Latino 4k latino, Tiempos Violentos (1994) PLACEBO 1080p Latino pelicula completa, Tiempos Violentos (1994) PLACEBO 1080p Latino descargar gratis, descargar Tiempos Violentos (1994) PLACEBO 1080p Latino pelicula latino, Tiempos Violentos (1994) PLACEBO 1080p Latino 1 link mega, Tiempos Violentos (1994) PLACEBO 1080p Latino 1 link google drive, Tiempos Violentos (1994) PLACEBO 1080p Latino hd 1080p latino.
Comentarios 0