×

¿Problemas para descargar con Mozilla, EDGE? Deshabilita la opción "Abrir vinculos en una pestaña nueva" tal como lo muestra ésta imagen.

James Bond: Operación Trueno (1965) REMUX 1080p Latino

386 vistas

Información de James Bond: Operación Trueno (1965) REMUX 1080p Latino

Datos de la película

  • Calidad: Full 1080p
  • Audio: Español Latino AC3 5.1 BLURAY - Ingles DTS 5.1 BLURAY
  • Subtitulos: Español Latino PGS - Ingles PGS
  • Resolución: 1920x1080p
  • Formato: MKV
  • Codec: H.264
  • Encoder: CinefiloCool
  • Mediainfo: Clic para Mostrar Datos Ver
  • Operacion Trueno (1965) REMUX 1080p Latino-CMHDD.mkv
    Format                      : Matroska
    Format version              : Version 4
    File size                   : 24.7 GiB
    Duration                    : 2 h 10 min
    Overall bit rate mode       : Variable
    Overall bit rate            : 27.1 Mb/s
    Movie name                  : Thunderball (1965) CinemaniaHDD.Net
    Encoded date                : UTC 2020-05-28 06:05:15
    Writing application         : mkvmerge v46.0.0 ('No Deeper Escape') 64-bit
    Writing library             : libebml v1.3.10 + libmatroska v1.5.2
    Attachments                 : CINEMANIAHD.png

    Video
    ID                          : 1
    Format                      : AVC
    Format/Info                 : Advanced Video Codec
    Format profile              : High@L4.1
    Format settings             : CABAC / 4 Ref Frames
    Format settings, CABAC      : Yes
    Format settings, Reference  : 4 frames
    Codec ID                    : V_MPEG4/ISO/AVC
    Duration                    : 2 h 10 min
    Bit rate mode               : Variable
    Bit rate                    : 23.2 Mb/s
    Maximum bit rate            : 38.0 Mb/s
    Width                       : 1 920 pixels
    Height                      : 1 080 pixels
    Display aspect ratio        : 16:9
    Frame rate mode             : Constant
    Frame rate                  : 23.976 (24000/1001) FPS
    Color space                 : YUV
    Chroma subsampling          : 4:2:0
    Bit depth                   : 8 bits
    Scan type                   : Progressive
    Bits/(Pixel*Frame)          : 0.466
    Stream size                 : 21.1 GiB (86%)
    Title                       : REMUX 1080p [CinemaniaHDD]
    Default                     : Yes
    Forced                      : No
    Color range                 : Limited
    Color primaries             : BT.709
    Transfer characteristics    : BT.709
    Matrix coefficients         : BT.709

    Audio #1
    ID                          : 2
    Format                      : AC-3
    Format/Info                 : Audio Coding 3
    Commercial name             : Dolby Digital
    Codec ID                    : A_AC3
    Duration                    : 2 h 10 min
    Bit rate mode               : Constant
    Bit rate                    : 448 kb/s
    Channel(s)                  : 6 channels
    Channel layout              : L R C LFE Ls Rs
    Sampling rate               : 48.0 kHz
    Frame rate                  : 31.250 FPS (1536 SPF)
    Compression mode            : Lossy
    Stream size                 : 418 MiB (2%)
    Title                       : Español Latino [CinemaniaHDD]
    Language                    : Spanish
    Service kind                : Complete Main
    Default                     : Yes
    Forced                      : No

    Audio #2
    ID                          : 3
    Format                      : DTS XLL
    Format/Info                 : Digital Theater Systems
    Commercial name             : DTS-HD Master Audio
    Codec ID                    : A_DTS
    Duration                    : 2 h 10 min
    Bit rate mode               : Variable
    Bit rate                    : 3 436 kb/s
    Channel(s)                  : 6 channels
    Channel layout              : C L R Ls Rs LFE
    Sampling rate               : 48.0 kHz
    Frame rate                  : 93.750 FPS (512 SPF)
    Bit depth                   : 24 bits
    Compression mode            : Lossless
    Stream size                 : 3.13 GiB (13%)
    Title                       : Ingles [CinemaniaHDD]
    Language                    : English
    Default                     : No
    Forced                      : No

    Text #1
    ID                          : 4
    Format                      : PGS
    Muxing mode                 : zlib
    Codec ID                    : S_HDMV/PGS
    Codec ID/Info               : Picture based subtitle format used on BDs/HD-DVDs
    Duration                    : 2 h 3 min
    Bit rate                    : 368 b/s
    Count of elements           : 36
    Stream size                 : 333 KiB (0%)
    Title                       : Forzados-PGS [CinemaniaHDD]
    Language                    : Spanish
    Default                     : Yes
    Forced                      : Yes

    Text #2
    ID                          : 5
    Format                      : PGS
    Muxing mode                 : zlib
    Codec ID                    : S_HDMV/PGS
    Codec ID/Info               : Picture based subtitle format used on BDs/HD-DVDs
    Duration                    : 2 h 8 min
    Bit rate                    : 23.7 kb/s
    Count of elements           : 1880
    Stream size                 : 21.8 MiB (0%)
    Title                       : Español-PGS [CinemaniaHDD]
    Language                    : Spanish
    Default                     : No
    Forced                      : No

    Text #3
    ID                          : 6
    Format                      : PGS
    Muxing mode                 : zlib
    Codec ID                    : S_HDMV/PGS
    Codec ID/Info               : Picture based subtitle format used on BDs/HD-DVDs
    Duration                    : 2 h 7 min
    Bit rate                    : 26.6 kb/s
    Count of elements           : 2012
    Stream size                 : 24.3 MiB (0%)
    Title                       : Ingles-PGS [CinemaniaHDD]
    Language                    : English
    Default                     : No
    Forced                      : No

    Text #4
    ID                          : 7
    Format                      : UTF-8
    Codec ID                    : S_TEXT/UTF8
    Codec ID/Info               : UTF-8 Plain Text
    Duration                    : 2 h 3 min
    Bit rate                    : 0 b/s
    Count of elements           : 18
    Stream size                 : 444 Bytes (0%)
    Title                       : Forzados-SRT [CinemaniaHDD]
    Language                    : Spanish
    Default                     : No
    Forced                      : No

    Text #5
    ID                          : 8
    Format                      : UTF-8
    Codec ID                    : S_TEXT/UTF8
    Codec ID/Info               : UTF-8 Plain Text
    Duration                    : 2 h 8 min
    Bit rate                    : 39 b/s
    Count of elements           : 980
    Stream size                 : 36.8 KiB (0%)
    Title                       : Español-SRT [CinemaniaHDD]
    Language                    : Spanish
    Default                     : No
    Forced                      : No

    Menu
    00:00:00.000                : en:Chapter01
    00:04:44.742                : en:Chapter02
    00:07:44.172                : en:Chapter03
    00:11:33.192                : en:Chapter04
    00:18:27.564                : en:Chapter05
    00:22:46.448                : en:Chapter06
    00:26:13.029                : en:Chapter07
    00:29:21.551                : en:Chapter08
    00:37:03.137                : en:Chapter09
    00:38:49.368                : en:Chapter10
    00:44:02.681                : en:Chapter11
    00:48:42.210                : en:Chapter12
    00:54:17.545                : en:Chapter13
    00:58:49.150                : en:Chapter14
    01:01:38.111                : en:Chapter15
    01:02:55.938                : en:Chapter16
    01:06:17.515                : en:Chapter17
    01:14:24.668                : en:Chapter18
    01:21:23.420                : en:Chapter19
    01:25:58.111                : en:Chapter20
    01:28:53.286                : en:Chapter21
    01:31:55.343                : en:Chapter22
    01:36:59.855                : en:Chapter23
    01:41:45.099                : en:Chapter24
    01:48:36.176                : en:Chapter25
    01:51:19.672                : en:Chapter26
    01:53:14.621                : en:Chapter27
    01:55:54.155                : en:Chapter28
    02:03:29.527                : en:Chapter29
    02:05:03.078                : en:Chapter30
    02:08:10.933                : en:Chapter31
    02:09:31.054                : en:Chapter32
    02:10:23.190                : en:Chapter33

  • Peso: 24.7 GiB

Sinopsis

Descargar James Bond: Operación Trueno (1965) REMUX 1080p Latino. La organización secreta Spectra se propone infiltrar en la base inglesa de la OTAN a un impostor llamado Angelo, y así lograr apoderarse de un bombardero Vulcan Vindicator equipado con dos bombas nucleares. Cuando logra su propósito, la organización amenaza con destruir una ciudad de EE.UU. o Inglaterra si no le dan 100 millones de libras esterlinas. El agente 007 es el encargado de seguir el caso, y en las Islas Bahamas conoce a Dominó, atractiva amante del misterioso Emilio Largo, que aparenta ser un ocioso millonario pero que en realidad es el número dos de Spectra. Mientras intenta localizar el avión secuestrado, James Bond debe enfrentarse con la cabecilla de los asesinos, Fiona Volpe, y con los secuaces de Emilio Largo.

Ficha técnica

Video trailer de la película

Enlaces de descarga

Rip de Bluray

Descargar James Bond: Operación Trueno (1965) REMUX 1080p Latino




Aportes de DPeliculasHDmega la pass es:dpeliculashdmega.org Aportes de CinemaniaHD la pass es:cinemaniahdd.com
Guardado en : Acción , Aventura , Remux , Suspenso

Películas relacionadas

  • Zola (2020) REMUX 1080p Latino

    Zola (2020) REMUX 1080p Latino

    2020
    Zola (2020) REMUX 1080p Latino

    1h 26m 2020

    Descargar Zola (2020) REMUX 1080p Latino. Una camarera accede a acompañar a una bailarina exótica,...

    Director: Sheri Davani

    Género: Comedia

    Actores: Ts Madison

  • Hocus Pocus: Abracadabra (1993) REMUX 1080p Latino

    Hocus Pocus: Abracadabra (1993) REMUX 1080p Latino

    1993
    Hocus Pocus: Abracadabra (1993) REMUX 1080p Latino

    1h 36m 1993

    Descargar Hocus Pocus: Abracadabra (1993) REMUX 1080p Latino. Tres brujas del siglo XII son invocadas...

    Director: Kenny Ortega

    Género: Comedia

    Actores: Vinessa Shaw

  • DC Liga De Supermascotas (2022) HD 1080p Latino

    DC Liga De Supermascotas (2022) HD 1080p Latino

    2022
    DC Liga De Supermascotas (2022) HD 1080p Latino

    1h 45m 2022

    Descargar DC Liga De Supermascotas (2022) HD 1080p Latino. Krypto el Superperro y Superman son amigos...

    Director: Sam Levine

    Género: Acción

    Actores: Yvette Nicole Brown

descargar James Bond: Operación Trueno (1965) REMUX 1080p Latino Full 1080p 1080p gratis, James Bond: Operación Trueno (1965) REMUX 1080p Latino Full 1080p mega 1 link, James Bond: Operación Trueno (1965) REMUX 1080p Latino Full 1080p pelicula completa, descargar James Bond: Operación Trueno (1965) REMUX 1080p Latino Full 1080p gratis en mega.

James Bond: Operación Trueno (1965) REMUX 1080p Latino pelicula full hd, James Bond: Operación Trueno (1965) REMUX 1080p Latino mega latino, James Bond: Operación Trueno (1965) REMUX 1080p Latino 4k latino, James Bond: Operación Trueno (1965) REMUX 1080p Latino pelicula completa, James Bond: Operación Trueno (1965) REMUX 1080p Latino descargar gratis, descargar James Bond: Operación Trueno (1965) REMUX 1080p Latino pelicula latino, James Bond: Operación Trueno (1965) REMUX 1080p Latino 1 link mega, James Bond: Operación Trueno (1965) REMUX 1080p Latino 1 link google drive, James Bond: Operación Trueno (1965) REMUX 1080p Latino hd 1080p latino.
Comentarios 2
  • Diego - 30 mayo, 2020

    el enlace publico esta como privado

    • Dracarys - 30 mayo, 2020

      Arreglado