×

¿Problemas para descargar con Mozilla, EDGE? Deshabilita la opción "Abrir vinculos en una pestaña nueva" tal como lo muestra ésta imagen.

James Bond: Operación Trueno (1965) 1080p Latino

375 vistas

Información de James Bond: Operación Trueno (1965) 1080p Latino

Datos de la película

  • Calidad: 1080p
  • Audio: Español Latino AC3 5.1 BLURAY - Ingles AC3 5.1 BLURAY
  • Subtitulos: Español Latino SRT - Ingles SRT
  • Resolución: 1920x770p
  • Formato: MKV
  • Codec: H.264
  • Encoder: CinefiloCool
  • Mediainfo: Clic para Mostrar Datos Ver
  • Operacion Trueno (1965) 1080p Latino-CMHDD.mkv
    Format                      : Matroska
    Format version              : Version 4
    File size                   : 4.72 GiB
    Duration                    : 2 h 10 min
    Overall bit rate mode       : Variable
    Overall bit rate            : 5 186 kb/s
    Movie name                  : Thunderball (1965) CinemaniaHDD.Net
    Encoded date                : UTC 2020-05-28 06:14:08
    Writing application         : mkvmerge v46.0.0 ('No Deeper Escape') 64-bit
    Writing library             : libebml v1.3.10 + libmatroska v1.5.2
    Attachments                 : CINEMANIAHD.png

    Video
    ID                          : 1
    Format                      : AVC
    Format/Info                 : Advanced Video Codec
    Format profile              : High@L4
    Format settings             : CABAC / 3 Ref Frames
    Format settings, CABAC      : Yes
    Format settings, Reference  : 3 frames
    Codec ID                    : V_MPEG4/ISO/AVC
    Duration                    : 2 h 10 min
    Bit rate mode               : Variable
    Bit rate                    : 4 096 kb/s
    Width                       : 1 808 pixels
    Height                      : 770 pixels
    Display aspect ratio        : 2.35:1
    Frame rate mode             : Constant
    Frame rate                  : 23.976 (24000/1001) FPS
    Color space                 : YUV
    Chroma subsampling          : 4:2:0
    Bit depth                   : 8 bits
    Scan type                   : Progressive
    Bits/(Pixel*Frame)          : 0.123
    Stream size                 : 3.73 GiB (79%)
    Title                       : HD1080p [CinemaniaHDD]
    Writing library             : x264 core 142 r2479 dd79a61
    Encoding settings           : cabac=1 / ref=3 / deblock=1:0:0 / analyse=0x3:0x113 / me=hex / subme=7 / psy=1 / psy_rd=1.00:0.00 / mixed_ref=1 / me_range=16 / chroma_me=1 / trellis=1 / 8x8dct=1 / cqm=0 / deadzone=21,11 / fast_pskip=1 / chroma_qp_offset=-2 / threads=6 / lookahead_threads=1 / sliced_threads=0 / nr=0 / decimate=1 / interlaced=0 / bluray_compat=0 / constrained_intra=0 / bframes=3 / b_pyramid=0 / b_adapt=1 / b_bias=0 / direct=1 / weightb=1 / open_gop=0 / weightp=2 / keyint=240 / keyint_min=24 / scenecut=40 / intra_refresh=0 / rc_lookahead=40 / rc=2pass / mbtree=1 / bitrate=4096 / ratetol=1.0 / qcomp=0.60 / qpmin=0 / qpmax=69 / qpstep=4 / cplxblur=20.0 / qblur=0.5 / vbv_maxrate=25000 / vbv_bufsize=25000 / nal_hrd=vbr / filler=0 / ip_ratio=1.40 / aq=1:1.00
    Default                     : Yes
    Forced                      : No

    Audio #1
    ID                          : 2
    Format                      : AC-3
    Format/Info                 : Audio Coding 3
    Commercial name             : Dolby Digital
    Codec ID                    : A_AC3
    Duration                    : 2 h 10 min
    Bit rate mode               : Constant
    Bit rate                    : 448 kb/s
    Channel(s)                  : 6 channels
    Channel layout              : L R C LFE Ls Rs
    Sampling rate               : 48.0 kHz
    Frame rate                  : 31.250 FPS (1536 SPF)
    Compression mode            : Lossy
    Stream size                 : 418 MiB (9%)
    Title                       : Español Latino [CinemaniaHDD]
    Language                    : Spanish
    Service kind                : Complete Main
    Default                     : Yes
    Forced                      : No

    Audio #2
    ID                          : 3
    Format                      : AC-3
    Format/Info                 : Audio Coding 3
    Commercial name             : Dolby Digital
    Codec ID                    : A_AC3
    Duration                    : 2 h 10 min
    Bit rate mode               : Constant
    Bit rate                    : 640 kb/s
    Channel(s)                  : 6 channels
    Channel layout              : L R C LFE Ls Rs
    Sampling rate               : 48.0 kHz
    Frame rate                  : 31.250 FPS (1536 SPF)
    Compression mode            : Lossy
    Stream size                 : 597 MiB (12%)
    Title                       : Ingles [CinemaniaHDD]
    Language                    : English
    Service kind                : Complete Main
    Default                     : No
    Forced                      : No

    Text #1
    ID                          : 4
    Format                      : UTF-8
    Codec ID                    : S_TEXT/UTF8
    Codec ID/Info               : UTF-8 Plain Text
    Duration                    : 2 h 3 min
    Bit rate                    : 0 b/s
    Count of elements           : 18
    Stream size                 : 444 Bytes (0%)
    Title                       : Forzados-SRT [CinemaniaHDD]
    Language                    : Spanish
    Default                     : Yes
    Forced                      : No

    Text #2
    ID                          : 5
    Format                      : UTF-8
    Codec ID                    : S_TEXT/UTF8
    Codec ID/Info               : UTF-8 Plain Text
    Duration                    : 2 h 8 min
    Bit rate                    : 39 b/s
    Count of elements           : 980
    Stream size                 : 36.8 KiB (0%)
    Title                       : Español-SRT [CinemaniaHDD]
    Language                    : Spanish
    Default                     : No
    Forced                      : No

    Text #3
    ID                          : 6
    Format                      : UTF-8
    Codec ID                    : S_TEXT/UTF8
    Codec ID/Info               : UTF-8 Plain Text
    Duration                    : 2 h 7 min
    Bit rate                    : 38 b/s
    Count of elements           : 980
    Stream size                 : 36.4 KiB (0%)
    Title                       : Ingles-SRT [CinemaniaHDD]
    Language                    : English
    Default                     : No
    Forced                      : No

    Menu
    00:00:00.000                : :Chapter 1
    00:04:44.743                : :Chapter 2
    00:07:44.172                : :Chapter 3
    00:11:33.193                : :Chapter 4
    00:18:27.565                : :Chapter 5
    00:22:46.448                : :Chapter 6
    00:26:13.030                : :Chapter 7
    00:29:21.551                : :Chapter 8
    00:37:03.138                : :Chapter 9
    00:38:49.369                : :Chapter 10
    00:44:02.682                : :Chapter 11
    00:48:42.211                : :Chapter 12
    00:54:17.546                : :Chapter 13
    00:58:49.151                : :Chapter 14
    01:01:38.111                : :Chapter 15
    01:02:55.939                : :Chapter 16
    01:06:17.515                : :Chapter 17
    01:14:24.669                : :Chapter 18
    01:21:23.420                : :Chapter 19
    01:25:58.111                : :Chapter 20
    01:28:53.286                : :Chapter 21
    01:31:55.343                : :Chapter 22
    01:36:59.856                : :Chapter 23
    01:41:45.099                : :Chapter 24
    01:48:36.176                : :Chapter 25
    01:51:19.673                : :Chapter 26
    01:53:14.621                : :Chapter 27
    01:55:54.156                : :Chapter 28
    02:03:29.527                : :Chapter 29
    02:05:03.079                : :Chapter 30
    02:08:10.933                : :Chapter 31
    02:09:31.055                : :Chapter 32

  • Peso: 4.72 GiB

Sinopsis

Descargar James Bond: Operación Trueno (1965) 1080p Latino. La organización secreta Spectra se propone infiltrar en la base inglesa de la OTAN a un impostor llamado Angelo, y así lograr apoderarse de un bombardero Vulcan Vindicator equipado con dos bombas nucleares. Cuando logra su propósito, la organización amenaza con destruir una ciudad de EE.UU. o Inglaterra si no le dan 100 millones de libras esterlinas. El agente 007 es el encargado de seguir el caso, y en las Islas Bahamas conoce a Dominó, atractiva amante del misterioso Emilio Largo, que aparenta ser un ocioso millonario pero que en realidad es el número dos de Spectra. Mientras intenta localizar el avión secuestrado, James Bond debe enfrentarse con la cabecilla de los asesinos, Fiona Volpe, y con los secuaces de Emilio Largo.

Ficha técnica

Video trailer de la película

Enlaces de descarga

Rip de Bluray

Descargar James Bond: Operación Trueno (1965) 1080p Latino




Aportes de DPeliculasHDmega la pass es:dpeliculashdmega.org Aportes de CinemaniaHD la pass es:cinemaniahdd.com
Guardado en : Acción , Aventura , HD 1080p , Suspenso

Películas relacionadas

descargar James Bond: Operación Trueno (1965) 1080p Latino 1080p 1080p gratis, James Bond: Operación Trueno (1965) 1080p Latino 1080p mega 1 link, James Bond: Operación Trueno (1965) 1080p Latino 1080p pelicula completa, descargar James Bond: Operación Trueno (1965) 1080p Latino 1080p gratis en mega.

James Bond: Operación Trueno (1965) 1080p Latino pelicula full hd, James Bond: Operación Trueno (1965) 1080p Latino mega latino, James Bond: Operación Trueno (1965) 1080p Latino 4k latino, James Bond: Operación Trueno (1965) 1080p Latino pelicula completa, James Bond: Operación Trueno (1965) 1080p Latino descargar gratis, descargar James Bond: Operación Trueno (1965) 1080p Latino pelicula latino, James Bond: Operación Trueno (1965) 1080p Latino 1 link mega, James Bond: Operación Trueno (1965) 1080p Latino 1 link google drive, James Bond: Operación Trueno (1965) 1080p Latino hd 1080p latino.
Comentarios 0