×

¿Problemas para descargar con Mozilla, EDGE? Deshabilita la opción "Abrir vinculos en una pestaña nueva" tal como lo muestra ésta imagen.

Thor: Amor y Trueno (2022) WEB-DL 1080p Latino

644 vistas

Información de Thor: Amor y Trueno (2022) WEB-DL 1080p Latino

Datos de la película

  • Calidad: WEBDL
  • Audio: Español Latino AC3 5.1 WEB-DL - Ingles AC3 5.1 WEB-DL
  • Subtitulos: Español Latino SRT- FORZADOS SRT
  • Resolución: 1920x804p
  • Formato: MKV
  • Codec: H.264
  • Encoder: Melkor
  • Mediainfo: Clic para Mostrar Datos Ver
  • Thor Amor Y Trueno (2022) WebDL 1080p Latino.mkv
    Format                      : Matroska
    Format version              : Version 4
    File size                   : 9.09 GiB
    Duration                    : 1 h 58 min
    Overall bit rate            : 10.9 Mb/s
    Movie name                  : Thor Love and Thunder (2022) CinemaniaHDD.Net
    Encoded date                : UTC 2022-09-07 17:51:40
    Writing application         : mkvmerge v56.1.0 ('My Friend') 64-bit
    Writing library             : libebml v1.4.2 + libmatroska v1.6.4
    Attachments                 : CINEMANIAHD.png

    Video
    ID                          : 1
    Format                      : AVC
    Format/Info                 : Advanced Video Codec
    Format profile              : High@L4
    Format settings             : CABAC / 5 Ref Frames
    Format settings, CABAC      : Yes
    Format settings, Reference  : 5 frames
    Codec ID                    : V_MPEG4/ISO/AVC
    Duration                    : 1 h 58 min
    Bit rate                    : 9 787 kb/s
    Width                       : 1 920 pixels
    Height                      : 804 pixels
    Display aspect ratio        : 2.40:1
    Frame rate mode             : Constant
    Frame rate                  : 23.976 FPS
    Color space                 : YUV
    Chroma subsampling          : 4:2:0
    Bit depth                   : 8 bits
    Scan type                   : Progressive
    Bits/(Pixel*Frame)          : 0.264
    Stream size                 : 8.13 GiB (89%)
    Title                       : Web HD1080p [CinemaniaHDD]
    Language                    : English
    Default                     : Yes
    Forced                      : Yes
    Color range                 : Limited
    Color primaries             : BT.709
    Transfer characteristics    : BT.709
    Matrix coefficients         : BT.709

    Audio #1
    ID                          : 2
    Format                      : AC-3
    Format/Info                 : Audio Coding 3
    Commercial name             : Dolby Digital
    Codec ID                    : A_AC3
    Duration                    : 1 h 58 min
    Bit rate mode               : Constant
    Bit rate                    : 384 kb/s
    Channel(s)                  : 6 channels
    Channel layout              : L R C LFE Ls Rs
    Sampling rate               : 48.0 kHz
    Frame rate                  : 31.250 FPS (1536 SPF)
    Compression mode            : Lossy
    Stream size                 : 326 MiB (4%)
    Title                       : Español Latino [CinemaniaHDD]
    Language                    : Spanish
    Service kind                : Complete Main
    Default                     : Yes
    Forced                      : Yes

    Audio #2
    ID                          : 3
    Format                      : E-AC-3 JOC
    Format/Info                 : Enhanced AC-3 with Joint Object Coding
    Commercial name             : Dolby Digital Plus with Dolby Atmos
    Codec ID                    : A_EAC3
    Duration                    : 1 h 58 min
    Bit rate mode               : Constant
    Bit rate                    : 768 kb/s
    Channel(s)                  : 6 channels
    Channel layout              : L R C LFE Ls Rs
    Sampling rate               : 48.0 kHz
    Frame rate                  : 31.250 FPS (1536 SPF)
    Compression mode            : Lossy
    Stream size                 : 652 MiB (7%)
    Title                       : Ingles [CinemaniaHDD]
    Language                    : English
    Service kind                : Complete Main
    Default                     : No
    Forced                      : No
    Complexity index            : 16
    Number of dynamic objects   : 15
    Bed channel count           : 1 channel
    Bed channel configuration   : LFE

    Text #1
    ID                          : 4
    Format                      : UTF-8
    Codec ID                    : S_TEXT/UTF8
    Codec ID/Info               : UTF-8 Plain Text
    Duration                    : 1 h 43 min
    Bit rate                    : 0 b/s
    Count of elements           : 14
    Stream size                 : 287 Bytes (0%)
    Title                       : Forzados-SRT [CinemaniaHDD]
    Language                    : Spanish
    Default                     : Yes
    Forced                      : Yes

    Text #2
    ID                          : 5
    Format                      : UTF-8
    Codec ID                    : S_TEXT/UTF8
    Codec ID/Info               : UTF-8 Plain Text
    Duration                    : 1 h 57 min
    Bit rate                    : 55 b/s
    Count of elements           : 1613
    Stream size                 : 47.6 KiB (0%)
    Title                       : Español-SRT [CinemaniaHDD]
    Language                    : Spanish
    Default                     : No
    Forced                      : No

    Text #3
    ID                          : 6
    Format                      : UTF-8
    Codec ID                    : S_TEXT/UTF8
    Codec ID/Info               : UTF-8 Plain Text
    Duration                    : 1 h 57 min
    Bit rate                    : 55 b/s
    Count of elements           : 1598
    Stream size                 : 47.5 KiB (0%)
    Title                       : Ingles-SRT [CinemaniaHDD]
    Language                    : English
    Default                     : No
    Forced                      : No

    Menu
    00:00:00.000                : Chapter 01
    00:06:45.155                : Chapter 02
    00:10:11.319                : Chapter 03
    00:14:23.780                : Chapter 04
    00:18:13.426                : Chapter 05
    00:20:59.509                : Chapter 06
    00:21:47.807                : Chapter 07
    00:27:00.995                : Chapter 08
    00:28:16.196                : Chapter 09
    00:29:52.250                : Chapter 10
    00:31:24.509                : Chapter 11
    00:35:15.115                : Chapter 12
    00:38:40.445                : Chapter 13
    00:45:37.445                : Chapter 14
    00:53:04.225                : Chapter 15
    01:06:19.396                : Chapter 16
    01:14:16.915                : Chapter 17
    01:24:35.825                : Chapter 18
    01:28:31.186                : Chapter 19
    01:30:20.003                : Chapter 20
    01:34:17.657                : Chapter 21
    01:38:12.684                : Chapter 22
    01:44:45.535                : Chapter 23
    01:48:17.622                : Chapter 24
    01:50:03.436                : Chapter 25
    01:51:14.716                : Chapter 26

  • Peso: 9.09 GiB

Sinopsis

Descargar Thor: Amor y Trueno (2022) WEB-DL 1080p Latino. Mucho tiempo después de los eventos sucedidos en Avengers: Endgame, los Guardianes de la Galaxia deben convencer a Thor para que regrese al campo de batalla y se enfrente a un villano empeñado en matar a todas las criaturas divinas en todo el cosmos. Para luchar contra esta amenaza, Thor debe reclutar a sus amigos Valkyrie, Korg y su ex novia Jane Foster, quien misteriosamente puede empuñar el martillo de Thor y por ende poseer su gran poder.

Ficha técnica

Video trailer de la película

Enlaces de descarga

Rip de Bluray

Descargar Thor: Amor y Trueno (2022) WEB-DL 1080p Latino




Aportes de DPeliculasHDmega la pass es:dpeliculashdmega.org Aportes de CinemaniaHD la pass es:cinemaniahdd.com
Guardado en : Acción , Aventura , Fantasía

Películas relacionadas

descargar Thor: Amor y Trueno (2022) WEB-DL 1080p Latino WEBDL 1080p gratis, Thor: Amor y Trueno (2022) WEB-DL 1080p Latino WEBDL mega 1 link, Thor: Amor y Trueno (2022) WEB-DL 1080p Latino WEBDL pelicula completa, descargar Thor: Amor y Trueno (2022) WEB-DL 1080p Latino WEBDL gratis en mega.

Thor: Amor y Trueno (2022) WEB-DL 1080p Latino pelicula full hd, Thor: Amor y Trueno (2022) WEB-DL 1080p Latino mega latino, Thor: Amor y Trueno (2022) WEB-DL 1080p Latino 4k latino, Thor: Amor y Trueno (2022) WEB-DL 1080p Latino pelicula completa, Thor: Amor y Trueno (2022) WEB-DL 1080p Latino descargar gratis, descargar Thor: Amor y Trueno (2022) WEB-DL 1080p Latino pelicula latino, Thor: Amor y Trueno (2022) WEB-DL 1080p Latino 1 link mega, Thor: Amor y Trueno (2022) WEB-DL 1080p Latino 1 link google drive, Thor: Amor y Trueno (2022) WEB-DL 1080p Latino hd 1080p latino.
Comentarios 2
  • Gerardo - 07 septiembre, 2022

    Hola , primero que todo agradezco el aporte, queria informar que la contraseña no funciona, ninguna de las informadas en la pagina

    • CinemaniaHDD - 07 septiembre, 2022

      Hola, debes ir a una optica urgentemente.
      en el paste de la pagina tenemos las 3 contraseñas que se usan en la pagina.