×

¿Problemas para descargar con Mozilla, EDGE? Deshabilita la opción "Abrir vinculos en una pestaña nueva" tal como lo muestra ésta imagen.

Thor: Amor y Trueno (2022) REMUX 4K UHD HDR Latino

37 vistas

Información de Thor: Amor y Trueno (2022) REMUX 4K UHD HDR Latino

Datos de la película

  • Calidad: 4K HDR
  • Audio: Se especifica abajo de la Sinopsis
  • Subtitulos: Español Latino PGS - Ingles PGS
  • Resolución: 3840x2160p
  • Formato: MKV
  • Codec: HEVC
  • Encoder: Melkor
  • Mediainfo: Clic para Mostrar Datos Ver
  • Thor. Amor Y Trueno (2022) REMUX UHD HDR Latino.mkv
    Format                      : Matroska
    Format version              : Version 4
    File size                   : 48.3 GiB
    Duration                    : 1 h 58 min
    Overall bit rate mode       : Variable
    Overall bit rate            : 58.2 Mb/s
    Movie name                  : Thor. Love and Thunder (2022) CinemaniaHDD.Net
    Encoded date                : UTC 2022-09-18 02:50:09
    Writing application         : mkvmerge v56.1.0 ('My Friend') 64-bit
    Writing library             : libebml v1.4.2 + libmatroska v1.6.4
    Attachments                 : CINEMANIAHD.png

    Video
    ID                          : 1
    ID in the original source m : 4113 (0x1011)
    Format                      : HEVC
    Format/Info                 : High Efficiency Video Coding
    Format profile              : Main 10@L5.1@High
    HDR format                  : SMPTE ST 2086, HDR10 compatible
    Codec ID                    : V_MPEGH/ISO/HEVC
    Duration                    : 1 h 58 min
    Bit rate                    : 51.1 Mb/s
    Width                       : 3 840 pixels
    Height                      : 2 160 pixels
    Display aspect ratio        : 16:9
    Frame rate mode             : Constant
    Frame rate                  : 23.976 (24000/1001) FPS
    Color space                 : YUV
    Chroma subsampling          : 4:2:0 (Type 2)
    Bit depth                   : 10 bits
    Bits/(Pixel*Frame)          : 0.257
    Stream size                 : 42.4 GiB (88%)
    Title                       : REMUX 2160p HDR [Bluray]
    Language                    : English
    Default                     : Yes
    Forced                      : Yes
    Color range                 : Limited
    Color primaries             : BT.2020
    Transfer characteristics    : PQ
    Matrix coefficients         : BT.2020 non-constant
    Mastering display color pri : BT.2020
    Mastering display luminance : min: 0.0050 cd/m2, max: 1000 cd/m2

    Audio #1
    ID                          : 2
    Format                      : E-AC-3
    Format/Info                 : Enhanced AC-3
    Commercial name             : Dolby Digital Plus
    Format profile              : Blu-ray Disc
    Codec ID                    : A_EAC3
    Duration                    : 1 h 58 min
    Bit rate mode               : Constant
    Bit rate                    : 1 024 kb/s
    Channel(s)                  : 8 channels
    Channel layout              : L R C LFE Ls Rs Lb Rb
    Sampling rate               : 48.0 kHz
    Frame rate                  : 31.250 FPS (1536 SPF)
    Compression mode            : Lossy
    Stream size                 : 870 MiB (2%)
    Title                       : Español Latino DDP [CinemaniaHDD]
    Language                    : Spanish
    Service kind                : Complete Main
    Default                     : Yes
    Forced                      : Yes

    Audio #2
    ID                          : 3
    ID in the original source m : 4352 (0x1100)
    Format                      : MLP FBA 16-ch
    Format/Info                 : Meridian Lossless Packing FBA with 16-channel presentation
    Commercial name             : Dolby TrueHD with Dolby Atmos
    Codec ID                    : A_TRUEHD
    Duration                    : 1 h 58 min
    Bit rate mode               : Variable
    Bit rate                    : 4 691 kb/s
    Maximum bit rate            : 8 409 kb/s
    Channel(s)                  : 8 channels
    Channel layout              : L R C LFE Ls Rs Lb Rb
    Sampling rate               : 48.0 kHz
    Frame rate                  : 1 200.000 FPS (40 SPF)
    Bit depth                   : 24 bits
    Compression mode            : Lossless
    Stream size                 : 3.89 GiB (8%)
    Title                       : Ingles [CinemaniaHDD]
    Language                    : English
    Default                     : No
    Forced                      : No
    Number of dynamic objects   : 13
    Bed channel count           : 1 channel
    Bed channel configuration   : LFE

    Audio #3
    ID                          : 4
    Format                      : AC-3
    Format/Info                 : Audio Coding 3
    Commercial name             : Dolby Digital
    Codec ID                    : A_AC3
    Duration                    : 1 h 58 min
    Bit rate mode               : Constant
    Bit rate                    : 640 kb/s
    Channel(s)                  : 6 channels
    Channel layout              : L R C LFE Ls Rs
    Sampling rate               : 48.0 kHz
    Frame rate                  : 31.250 FPS (1536 SPF)
    Compression mode            : Lossy
    Stream size                 : 544 MiB (1%)
    Title                       : Español Latino AC3 [CinemaniaHDD]
    Language                    : Spanish
    Service kind                : Complete Main
    Default                     : No
    Forced                      : No

    Audio #4
    ID                          : 5
    Format                      : AC-3
    Format/Info                 : Audio Coding 3
    Commercial name             : Dolby Digital
    Codec ID                    : A_AC3
    Duration                    : 1 h 58 min
    Bit rate mode               : Constant
    Bit rate                    : 640 kb/s
    Channel(s)                  : 6 channels
    Channel layout              : L R C LFE Ls Rs
    Sampling rate               : 48.0 kHz
    Frame rate                  : 31.250 FPS (1536 SPF)
    Compression mode            : Lossy
    Stream size                 : 544 MiB (1%)
    Title                       : Ingles AC3 [CinemaniaHDD]
    Language                    : English
    Service kind                : Complete Main
    Default                     : No
    Forced                      : No

    Text #1
    ID                          : 6
    ID in the original source m : 4770 (0x12A2)
    Format                      : PGS
    Muxing mode                 : zlib
    Codec ID                    : S_HDMV/PGS
    Codec ID/Info               : Picture based subtitle format used on BDs/HD-DVDs
    Duration                    : 1 h 57 min
    Bit rate                    : 38.1 kb/s
    Count of elements           : 3224
    Stream size                 : 32.1 MiB (0%)
    Title                       : Sub_Esp [PGS]
    Language                    : Spanish
    Default                     : No
    Forced                      : No

    Text #2
    ID                          : 7
    ID in the original source m : 4768 (0x12A0)
    Format                      : PGS
    Muxing mode                 : zlib
    Codec ID                    : S_HDMV/PGS
    Codec ID/Info               : Picture based subtitle format used on BDs/HD-DVDs
    Duration                    : 1 h 58 min
    Bit rate                    : 52.5 kb/s
    Count of elements           : 4548
    Stream size                 : 44.4 MiB (0%)
    Title                       : Sub_Eng [PGS]
    Language                    : English
    Default                     : No
    Forced                      : No

    Text #3
    ID                          : 8
    Format                      : UTF-8
    Codec ID                    : S_TEXT/UTF8
    Codec ID/Info               : UTF-8 Plain Text
    Duration                    : 1 h 43 min
    Bit rate                    : 0 b/s
    Count of elements           : 14
    Stream size                 : 287 Bytes (0%)
    Title                       : Sub_Forzados
    Language                    : Spanish
    Default                     : Yes
    Forced                      : Yes

    Text #4
    ID                          : 9
    Format                      : UTF-8
    Codec ID                    : S_TEXT/UTF8
    Codec ID/Info               : UTF-8 Plain Text
    Duration                    : 1 h 57 min
    Bit rate                    : 55 b/s
    Count of elements           : 1613
    Stream size                 : 47.6 KiB (0%)
    Title                       : Sub_Esp
    Language                    : Spanish
    Default                     : No
    Forced                      : No

    Menu
    00:00:00.000                : Chapter 01
    00:06:45.154                : Chapter 02
    00:10:11.319                : Chapter 03
    00:14:23.904                : Chapter 04
    00:18:13.425                : Chapter 05
    00:20:59.508                : Chapter 06
    00:21:47.806                : Chapter 07
    00:27:00.994                : Chapter 08
    00:28:16.069                : Chapter 09
    00:29:52.248                : Chapter 10
    00:31:24.424                : Chapter 11
    00:35:14.987                : Chapter 12
    00:38:40.443                : Chapter 13
    00:45:37.443                : Chapter 14
    00:53:04.055                : Chapter 15
    01:06:19.684                : Chapter 16
    01:14:16.910                : Chapter 17
    01:24:35.737                : Chapter 18
    01:28:30.972                : Chapter 19
    01:30:19.622                : Chapter 20
    01:34:17.652                : Chapter 21
    01:38:12.511                : Chapter 22
    01:44:45.654                : Chapter 23
    01:48:17.282                : Chapter 24
    01:50:03.221                : Chapter 25
    01:51:14.542                : Chapter 26

  • Peso: 48.3 GiB

Sinopsis

Descargar Thor: Amor y Trueno (2022) REMUX 4K UHD HDR Latino. El Dios del Trueno emprende un viaje que no se parece en nada a lo que se ha enfrentado hasta ahora: una búsqueda de la paz interior. Pero el retiro de Thor se ve interrumpido por un asesino galáctico conocido como Gorr el Carnicero de Dioses. Para hacer frente a la amenaza, Thor solicita la ayuda de Valkiria, de Korg y de su ex novia Jane Foster que, para sorpresa de Thor, empuña su martillo mágico, Mjolnir, como la Poderosa Thor. Juntos, se embarcan en una aventura cósmica en la que tendrán que descubrir el misterio de la venganza del Carnicero de Dioses y detenerlo antes de que sea demasiado tarde.

Español Latino EAC3 7.1 & Core AC3 5.1 BD – Ingles TrueHD 7.1 & Core AC3 5.1 BD

Disponible Solo Para VIP!!!

Ficha técnica

Video trailer de la película

Enlaces de descarga

Rip de Bluray

Descargar Thor: Amor y Trueno (2022) REMUX 4K UHD HDR Latino


Aportes de DPeliculasHDmega la pass es:dpeliculashdmega.org Aportes de CinemaniaHD la pass es:cinemaniahdd.com
Guardado en : 4K HDR , 4K UHD , Acción , Comedia , Fantasía , Remux

Películas relacionadas

descargar Thor: Amor y Trueno (2022) REMUX 4K UHD HDR Latino 4K HDR 1080p gratis, Thor: Amor y Trueno (2022) REMUX 4K UHD HDR Latino 4K HDR mega 1 link, Thor: Amor y Trueno (2022) REMUX 4K UHD HDR Latino 4K HDR pelicula completa, descargar Thor: Amor y Trueno (2022) REMUX 4K UHD HDR Latino 4K HDR gratis en mega.

Thor: Amor y Trueno (2022) REMUX 4K UHD HDR Latino pelicula full hd, Thor: Amor y Trueno (2022) REMUX 4K UHD HDR Latino mega latino, Thor: Amor y Trueno (2022) REMUX 4K UHD HDR Latino 4k latino, Thor: Amor y Trueno (2022) REMUX 4K UHD HDR Latino pelicula completa, Thor: Amor y Trueno (2022) REMUX 4K UHD HDR Latino descargar gratis, descargar Thor: Amor y Trueno (2022) REMUX 4K UHD HDR Latino pelicula latino, Thor: Amor y Trueno (2022) REMUX 4K UHD HDR Latino 1 link mega, Thor: Amor y Trueno (2022) REMUX 4K UHD HDR Latino 1 link google drive, Thor: Amor y Trueno (2022) REMUX 4K UHD HDR Latino hd 1080p latino.
Comentarios 0