×

¿Problemas para descargar con Mozilla, EDGE? Deshabilita la opción "Abrir vinculos en una pestaña nueva" tal como lo muestra ésta imagen.

¡Esto es guerra! (2012) EXTENDED REMUX 1080p Latino

151 vistas

Información de ¡Esto es guerra! (2012) EXTENDED REMUX 1080p Latino

Datos de la película

  • Calidad: Full 1080p
  • Audio: Español Latino AC3 5.1 BLURAY - Ingles DTS 5.1 BLURAY
  • Subtitulos: Español Latino PGS - Ingles PGS
  • Resolución: 1920x1080p
  • Formato: MKV
  • Codec: H.264
  • Encoder: CinefiloCool
  • Mediainfo: Clic para Mostrar Datos Ver
  • ¡Esto Es Guerra! (2012) EXTENDED REMUX 1080p Latino-CMHDD.mkv
    Format                      : Matroska
    Format version              : Version 4
    File size                   : 20.4 GiB
    Duration                    : 1 h 44 min
    Overall bit rate mode       : Variable
    Overall bit rate            : 28.1 Mb/s
    Movie name                  : This Means War (2012) CinemaniaHDD.Net
    Encoded date                : UTC 2021-09-28 06:45:58
    Writing application         : mkvmerge v56.1.0 ('My Friend') 64-bit
    Writing library             : libebml v1.4.2 + libmatroska v1.6.4
    Attachments                 : CINEMANIAHD.png

    Video
    ID                          : 1
    Format                      : AVC
    Format/Info                 : Advanced Video Codec
    Format profile              : High@L4.1
    Format settings             : CABAC / 2 Ref Frames
    Format settings, CABAC      : Yes
    Format settings, Reference  : 2 frames
    Codec ID                    : V_MPEG4/ISO/AVC
    Duration                    : 1 h 44 min
    Bit rate mode               : Variable
    Bit rate                    : 23.8 Mb/s
    Width                       : 1 920 pixels
    Height                      : 1 080 pixels
    Display aspect ratio        : 16:9
    Frame rate mode             : Constant
    Frame rate                  : 23.976 (24000/1001) FPS
    Color space                 : YUV
    Chroma subsampling          : 4:2:0
    Bit depth                   : 8 bits
    Scan type                   : Progressive
    Bits/(Pixel*Frame)          : 0.479
    Stream size                 : 17.3 GiB (85%)
    Title                       : REMUX HD1080p [CinemaniaHDD]
    Default                     : Yes
    Forced                      : Yes

    Audio #1
    ID                          : 2
    Format                      : AC-3
    Format/Info                 : Audio Coding 3
    Commercial name             : Dolby Digital
    Codec ID                    : A_AC3
    Duration                    : 1 h 44 min
    Bit rate mode               : Constant
    Bit rate                    : 448 kb/s
    Channel(s)                  : 6 channels
    Channel layout              : L R C LFE Ls Rs
    Sampling rate               : 48.0 kHz
    Frame rate                  : 31.250 FPS (1536 SPF)
    Compression mode            : Lossy
    Stream size                 : 333 MiB (2%)
    Title                       : Español Latino [CinemaniaHDD]
    Language                    : Spanish
    Service kind                : Complete Main
    Default                     : Yes
    Forced                      : Yes

    Audio #2
    ID                          : 3
    Format                      : DTS XLL
    Format/Info                 : Digital Theater Systems
    Commercial name             : DTS-HD Master Audio
    Codec ID                    : A_DTS
    Duration                    : 1 h 44 min
    Bit rate mode               : Variable
    Bit rate                    : 3 799 kb/s
    Channel(s)                  : 6 channels
    Channel layout              : C L R Ls Rs LFE
    Sampling rate               : 48.0 kHz
    Frame rate                  : 93.750 FPS (512 SPF)
    Bit depth                   : 24 bits
    Compression mode            : Lossless
    Stream size                 : 2.76 GiB (14%)
    Title                       : Ingles [CinemaniaHDD]
    Language                    : English
    Default                     : No
    Forced                      : No

    Text #1
    ID                          : 4
    Format                      : PGS
    Muxing mode                 : zlib
    Codec ID                    : S_HDMV/PGS
    Codec ID/Info               : Picture based subtitle format used on BDs/HD-DVDs
    Duration                    : 1 h 41 min
    Bit rate                    : 199 b/s
    Count of elements           : 20
    Stream size                 : 149 KiB (0%)
    Title                       : Forzados-PGS [CinemaniaHDD]
    Language                    : Spanish
    Default                     : No
    Forced                      : No

    Text #2
    ID                          : 5
    Format                      : PGS
    Muxing mode                 : zlib
    Codec ID                    : S_HDMV/PGS
    Codec ID/Info               : Picture based subtitle format used on BDs/HD-DVDs
    Duration                    : 1 h 43 min
    Bit rate                    : 37.9 kb/s
    Count of elements           : 3188
    Stream size                 : 28.0 MiB (0%)
    Title                       : Español-PGS [CinemaniaHDD]
    Language                    : Spanish
    Default                     : No
    Forced                      : No

    Text #3
    ID                          : 6
    Format                      : PGS
    Muxing mode                 : zlib
    Codec ID                    : S_HDMV/PGS
    Codec ID/Info               : Picture based subtitle format used on BDs/HD-DVDs
    Duration                    : 1 h 43 min
    Bit rate                    : 49.4 kb/s
    Count of elements           : 3605
    Stream size                 : 36.5 MiB (0%)
    Title                       : Ingles-PGS [CinemaniaHDD]
    Language                    : English
    Default                     : No
    Forced                      : No

    Text #4
    ID                          : 7
    Format                      : UTF-8
    Codec ID                    : S_TEXT/UTF8
    Codec ID/Info               : UTF-8 Plain Text
    Duration                    : 1 h 7 min
    Bit rate                    : 0 b/s
    Count of elements           : 9
    Stream size                 : 236 Bytes (0%)
    Title                       : Forzados-SRT [CinemaniaHDD]
    Language                    : Spanish
    Default                     : Yes
    Forced                      : Yes

    Text #5
    ID                          : 8
    Format                      : UTF-8
    Codec ID                    : S_TEXT/UTF8
    Codec ID/Info               : UTF-8 Plain Text
    Duration                    : 1 h 38 min
    Bit rate                    : 71 b/s
    Count of elements           : 1574
    Stream size                 : 51.4 KiB (0%)
    Title                       : Español-SRT [CinemaniaHDD]
    Language                    : Spanish
    Default                     : No
    Forced                      : No

    Menu
    00:00:00.000                : Chapter 1
    00:06:05.823                : Chapter 2
    00:11:14.256                : Chapter 3
    00:15:22.463                : Chapter 4
    00:18:37.032                : Chapter 5
    00:22:51.203                : Chapter 6
    00:24:51.364                : Chapter 7
    00:28:22.700                : Chapter 8
    00:32:03.713                : Chapter 9
    00:37:39.465                : Chapter 10
    00:42:10.819                : Chapter 11
    00:45:56.253                : Chapter 12
    00:48:48.675                : Chapter 13
    00:52:16.132                : Chapter 14
    00:57:02.877                : Chapter 15
    01:03:23.257                : Chapter 16
    01:08:42.034                : Chapter 17
    01:16:30.585                : Chapter 18
    01:19:47.240                : Chapter 19
    01:23:12.362                : Chapter 20
    01:28:23.089                : Chapter 21
    01:33:12.169                : Chapter 22
    01:37:07.655                : Chapter 23
    01:38:50.049                : Chapter 24
    01:43:59.983                : Chapter 25

  • Peso: 20.4 GiB

Sinopsis

Descargar ¡Esto es guerra! (2012) EXTENDED REMUX 1080p Latino. Dos agentes de la CIA, grandes amigos desde la infancia, se enamoran de la misma mujer. Su amistad desaparece y se enzarzan en una batalla de proporciones épicas que pondrá en jaque a la ciudad de Nueva York.

Disponible Solo Para VIP!! 🙂

Ficha técnica

Video trailer de la película

Enlaces de descarga

Rip de Bluray

Descargar ¡Esto es guerra! (2012) EXTENDED REMUX 1080p Latino


Aportes de DPeliculasHDmega la pass es:dpeliculashdmega.org Aportes de CinemaniaHD la pass es:cinemaniahdd.com
Guardado en : Acción , Comedia , Remux , Romance

Películas relacionadas

  • Shotgun Wedding (2022) AMZN WEB-DL 1080p Latino

    Shotgun Wedding (2022) AMZN WEB-DL 1080p Latino

    2022
    Shotgun Wedding (2022) AMZN WEB-DL 1080p Latino

    1h 41m 2022

    Darcy y Tom reúnen a sus familias para la boda de destino definitiva, pero cuando toman como rehenes...

    Director: Jason Moore

    Género: Acción

    Actores: Steve Coulter

  • M3GAN (2023) AMZN WEB-DL 4K UHD HDR Latino

    M3GAN (2023) AMZN WEB-DL 4K UHD HDR Latino

    2022
    M3GAN (2023) AMZN WEB-DL 4K UHD HDR Latino

    1h 42m 2022

    Descargar M3GAN (2023) AMZN WEB-DL 4K UHD HDR Latino. Cuando Gemma se convierte en la cuidadora de su...

    Director: Stephen W. Moore

    Género: 4K HDR

    Actores: Violet McGraw

  • M3GAN (2022) MA WEB-DL 1080p Latino

    M3GAN (2022) MA WEB-DL 1080p Latino

    2022
    M3GAN (2022) MA WEB-DL 1080p Latino

    1h 42m 2022

    Descargar M3GAN (2022) MA WEB-DL 1080p Latino. Cuando Gemma se convierte en la cuidadora de su sobrina...

    Director: Stephen W. Moore

    Género: Ciencia ficción

    Actores: Violet McGraw

  • Mar de sangre (2022) WEB-DL 1080p Latino

    Mar de sangre (2022) WEB-DL 1080p Latino

    2022
    Mar de sangre (2022) WEB-DL 1080p Latino

    1h 27m 2022

    Descargar Mar de sangre (2022) WEB-DL 1080p Latino. Un grupo de amigos que disfrutan de un fin de semana...

    Director: James Nunn

    Género: Acción

    Actores: Thomas Michael Flynn

  • Noche sin paz (2022) PLACEBO Full HD 1080p Latino

    Noche sin paz (2022) PLACEBO Full HD 1080p Latino

    2022
    Noche sin paz (2022) PLACEBO Full HD 1080p Latino

    1h 41m 2022

    Descargar Noche sin paz (2022) PLACEBO Full HD 1080p Latino. Cuando un equipo de mercenarios irrumpe...

    Director: Tyshana Hobson

    Género: Acción

    Actores: Yoon Cha-Lee

descargar ¡Esto es guerra! (2012) EXTENDED REMUX 1080p Latino Full 1080p 1080p gratis, ¡Esto es guerra! (2012) EXTENDED REMUX 1080p Latino Full 1080p mega 1 link, ¡Esto es guerra! (2012) EXTENDED REMUX 1080p Latino Full 1080p pelicula completa, descargar ¡Esto es guerra! (2012) EXTENDED REMUX 1080p Latino Full 1080p gratis en mega.

¡Esto es guerra! (2012) EXTENDED REMUX 1080p Latino pelicula full hd, ¡Esto es guerra! (2012) EXTENDED REMUX 1080p Latino mega latino, ¡Esto es guerra! (2012) EXTENDED REMUX 1080p Latino 4k latino, ¡Esto es guerra! (2012) EXTENDED REMUX 1080p Latino pelicula completa, ¡Esto es guerra! (2012) EXTENDED REMUX 1080p Latino descargar gratis, descargar ¡Esto es guerra! (2012) EXTENDED REMUX 1080p Latino pelicula latino, ¡Esto es guerra! (2012) EXTENDED REMUX 1080p Latino 1 link mega, ¡Esto es guerra! (2012) EXTENDED REMUX 1080p Latino 1 link google drive, ¡Esto es guerra! (2012) EXTENDED REMUX 1080p Latino hd 1080p latino.
Comentarios 0