×

¿Problemas para descargar con Mozilla, EDGE? Deshabilita la opción "Abrir vinculos en una pestaña nueva" tal como lo muestra ésta imagen.

¡Esto es guerra! (2012) EXTENDED Full HD 1080p Latino

2.058 vistas

Información de ¡Esto es guerra! (2012) EXTENDED Full HD 1080p Latino

Datos de la película

  • Calidad: Full 1080p
  • Audio: Español Latino AC3 5.1 BLURAY - Ingles DTS 5.1 BLURAY
  • Subtitulos: Español Latino PGS - Ingles PGS
  • Resolución: 1920x1080p
  • Formato: MKV
  • Codec: H.264
  • Encoder: Dracarys
  • Mediainfo: Clic para Mostrar Datos Ver
  • ¡Esto Es Guerra! (2012) EXTENDED Full HD 1080p Latino-CMHDD.mkv
    Format                      : Matroska
    Format version              : Version 4
    File size                   : 9.86 GiB
    Duration                    : 1 h 44 min
    Overall bit rate            : 13.6 Mb/s
    Movie name                  : This Means War (2012) CinemaniaHDD.Net
    Encoded date                : UTC 2021-11-18 21:48:55
    Writing application         : mkvmerge v56.1.0 ('My Friend') 64-bit
    Writing library             : libebml v1.4.2 + libmatroska v1.6.4
    Attachments                 : CINEMANIAHD.png

    Video
    ID                          : 1
    Format                      : AVC
    Format/Info                 : Advanced Video Codec
    Format profile              : High@L4.1
    Format settings             : CABAC / 4 Ref Frames
    Format settings, CABAC      : Yes
    Format settings, Reference  : 4 frames
    Codec ID                    : V_MPEG4/ISO/AVC
    Duration                    : 1 h 44 min
    Bit rate                    : 11.6 Mb/s
    Width                       : 1 920 pixels
    Height                      : 1 080 pixels
    Display aspect ratio        : 16:9
    Frame rate mode             : Constant
    Frame rate                  : 23.976 (24000/1001) FPS
    Color space                 : YUV
    Chroma subsampling          : 4:2:0
    Bit depth                   : 8 bits
    Scan type                   : Progressive
    Bits/(Pixel*Frame)          : 0.233
    Stream size                 : 8.41 GiB (85%)
    Title                       : Full HD1080p [CinemaniaHDD]
    Writing library             : x264 core 148 r2708 86b7198
    Encoding settings           : cabac=1 / ref=4 / deblock=1:0:0 / analyse=0x3:0x133 / me=esa / subme=10 / psy=1 / psy_rd=1.00:0.00 / mixed_ref=1 / me_range=24 / chroma_me=1 / trellis=2 / 8x8dct=1 / cqm=0 / deadzone=21,11 / fast_pskip=1 / chroma_qp_offset=-2 / threads=34 / lookahead_threads=5 / sliced_threads=0 / nr=0 / decimate=1 / interlaced=0 / bluray_compat=0 / constrained_intra=0 / bframes=8 / b_pyramid=2 / b_adapt=2 / b_bias=0 / direct=3 / weightb=1 / open_gop=0 / weightp=2 / keyint=240 / keyint_min=24 / scenecut=40 / intra_refresh=0 / rc_lookahead=60 / rc=crf / mbtree=1 / crf=20.0 / qcomp=0.60 / qpmin=0 / qpmax=69 / qpstep=4 / vbv_maxrate=62500 / vbv_bufsize=78125 / crf_max=0.0 / nal_hrd=none / filler=0 / ip_ratio=1.40 / aq=1:1.00
    Default                     : Yes
    Forced                      : Yes
    Color range                 : Limited
    Color primaries             : BT.709
    Transfer characteristics    : BT.709
    Matrix coefficients         : BT.709

    Audio #1
    ID                          : 2
    Format                      : AC-3
    Format/Info                 : Audio Coding 3
    Commercial name             : Dolby Digital
    Codec ID                    : A_AC3
    Duration                    : 1 h 44 min
    Bit rate mode               : Constant
    Bit rate                    : 448 kb/s
    Channel(s)                  : 6 channels
    Channel layout              : L R C LFE Ls Rs
    Sampling rate               : 48.0 kHz
    Frame rate                  : 31.250 FPS (1536 SPF)
    Compression mode            : Lossy
    Stream size                 : 333 MiB (3%)
    Title                       : Español Latino [CinemaniaHDD]
    Language                    : Spanish
    Service kind                : Complete Main
    Default                     : Yes
    Forced                      : Yes

    Audio #2
    ID                          : 3
    Format                      : DTS
    Format/Info                 : Digital Theater Systems
    Codec ID                    : A_DTS
    Duration                    : 1 h 44 min
    Bit rate mode               : Constant
    Bit rate                    : 1 509 kb/s
    Channel(s)                  : 6 channels
    Channel layout              : C L R Ls Rs LFE
    Sampling rate               : 48.0 kHz
    Frame rate                  : 93.750 FPS (512 SPF)
    Bit depth                   : 24 bits
    Compression mode            : Lossy
    Stream size                 : 1.10 GiB (11%)
    Title                       : Ingles [CinemaniaHDD]
    Language                    : English
    Default                     : No
    Forced                      : No

    Text #1
    ID                          : 4
    Format                      : PGS
    Muxing mode                 : zlib
    Codec ID                    : S_HDMV/PGS
    Codec ID/Info               : Picture based subtitle format used on BDs/HD-DVDs
    Duration                    : 1 h 41 min
    Bit rate                    : 199 b/s
    Count of elements           : 20
    Stream size                 : 149 KiB (0%)
    Title                       : Forzados-PGS [CinemaniaHDD]
    Language                    : Spanish
    Default                     : No
    Forced                      : No

    Text #2
    ID                          : 5
    Format                      : PGS
    Muxing mode                 : zlib
    Codec ID                    : S_HDMV/PGS
    Codec ID/Info               : Picture based subtitle format used on BDs/HD-DVDs
    Duration                    : 1 h 43 min
    Bit rate                    : 37.9 kb/s
    Count of elements           : 3188
    Stream size                 : 28.0 MiB (0%)
    Title                       : Español-PGS [CinemaniaHDD]
    Language                    : Spanish
    Default                     : No
    Forced                      : No

    Text #3
    ID                          : 6
    Format                      : PGS
    Muxing mode                 : zlib
    Codec ID                    : S_HDMV/PGS
    Codec ID/Info               : Picture based subtitle format used on BDs/HD-DVDs
    Duration                    : 1 h 43 min
    Bit rate                    : 49.4 kb/s
    Count of elements           : 3605
    Stream size                 : 36.5 MiB (0%)
    Title                       : Ingles-PGS [CinemaniaHDD]
    Language                    : English
    Default                     : No
    Forced                      : No

    Text #4
    ID                          : 7
    Format                      : UTF-8
    Codec ID                    : S_TEXT/UTF8
    Codec ID/Info               : UTF-8 Plain Text
    Duration                    : 1 h 7 min
    Bit rate                    : 0 b/s
    Count of elements           : 9
    Stream size                 : 236 Bytes (0%)
    Title                       : Forzados-SRT [CinemaniaHDD]
    Language                    : Spanish
    Default                     : Yes
    Forced                      : Yes

    Text #5
    ID                          : 8
    Format                      : UTF-8
    Codec ID                    : S_TEXT/UTF8
    Codec ID/Info               : UTF-8 Plain Text
    Duration                    : 1 h 38 min
    Bit rate                    : 71 b/s
    Count of elements           : 1574
    Stream size                 : 51.4 KiB (0%)
    Title                       : Español-SRT [CinemaniaHDD]
    Language                    : Spanish
    Default                     : No
    Forced                      : No

    Menu
    00:00:00.000                : Chapter 1
    00:06:05.823                : Chapter 2
    00:11:14.256                : Chapter 3
    00:15:22.463                : Chapter 4
    00:18:37.032                : Chapter 5
    00:22:51.203                : Chapter 6
    00:24:51.364                : Chapter 7
    00:28:22.700                : Chapter 8
    00:32:03.713                : Chapter 9
    00:37:39.465                : Chapter 10
    00:42:10.819                : Chapter 11
    00:45:56.253                : Chapter 12
    00:48:48.675                : Chapter 13
    00:52:16.132                : Chapter 14
    00:57:02.877                : Chapter 15
    01:03:23.257                : Chapter 16
    01:08:42.034                : Chapter 17
    01:16:30.585                : Chapter 18
    01:19:47.240                : Chapter 19
    01:23:12.362                : Chapter 20
    01:28:23.089                : Chapter 21
    01:33:12.169                : Chapter 22
    01:37:07.655                : Chapter 23
    01:38:50.049                : Chapter 24
    01:43:59.983                : Chapter 25

  • Peso: 9.86 GiB

Sinopsis

Descargar ¡Esto es guerra! (2012) EXTENDED Full HD 1080p Latino. Dos agentes de la CIA, grandes amigos desde la infancia, se enamoran de la misma mujer. Su amistad desaparece y se enzarzan en una batalla de proporciones épicas que pondrá en jaque a la ciudad de Nueva York.

RESUBIDO!!!

Ficha técnica

Video trailer de la película

Enlaces de descarga

Rip de Bluray

Descargar ¡Esto es guerra! (2012) EXTENDED Full HD 1080p Latino




Aportes de DPeliculasHDmega la pass es:dpeliculashdmega.org Aportes de CinemaniaHD la pass es:cinemaniahdd.com

Películas relacionadas

descargar ¡Esto es guerra! (2012) EXTENDED Full HD 1080p Latino Full 1080p 1080p gratis, ¡Esto es guerra! (2012) EXTENDED Full HD 1080p Latino Full 1080p mega 1 link, ¡Esto es guerra! (2012) EXTENDED Full HD 1080p Latino Full 1080p pelicula completa, descargar ¡Esto es guerra! (2012) EXTENDED Full HD 1080p Latino Full 1080p gratis en mega.

¡Esto es guerra! (2012) EXTENDED Full HD 1080p Latino pelicula full hd, ¡Esto es guerra! (2012) EXTENDED Full HD 1080p Latino mega latino, ¡Esto es guerra! (2012) EXTENDED Full HD 1080p Latino 4k latino, ¡Esto es guerra! (2012) EXTENDED Full HD 1080p Latino pelicula completa, ¡Esto es guerra! (2012) EXTENDED Full HD 1080p Latino descargar gratis, descargar ¡Esto es guerra! (2012) EXTENDED Full HD 1080p Latino pelicula latino, ¡Esto es guerra! (2012) EXTENDED Full HD 1080p Latino 1 link mega, ¡Esto es guerra! (2012) EXTENDED Full HD 1080p Latino 1 link google drive, ¡Esto es guerra! (2012) EXTENDED Full HD 1080p Latino hd 1080p latino.