×

¿Problemas para descargar con Mozilla, EDGE? Deshabilita la opción "Abrir vinculos en una pestaña nueva" tal como lo muestra ésta imagen.

Thirteen Lives (2022) AMZN WEB-DL 1080p Latino

708 vistas

Información de Thirteen Lives (2022) AMZN WEB-DL 1080p Latino

Datos de la película

  • Calidad: 1080p
  • Audio: Español Latino AC3 5.1 WEB-DL - Ingles AC3 5.1 WEB-DL
  • Subtitulos: Español Latino SRT- FORZADOS SRT
  • Resolución: 1920x1080
  • Formato: MKV
  • Codec: H.264
  • Encoder: cinemaniahdd
  • Mediainfo: Clic para Mostrar Datos Ver
  • Thirteen Lives (2022) AMZN WEB-DL 1080p Latino [CNMNHDD].mkv
    Format                      : Matroska
    Format version              : Version 4
    File size                   : 10.3 GiB
    Duration                    : 2 h 29 min
    Overall bit rate            : 9 842 kb/s
    Movie name                  : Thirteen Lives (2022) - CinemaniaHDD.Net
    Encoded date                : UTC 2022-08-05 00:46:38
    Writing application         : mkvmerge v56.1.0 ('My Friend') 64-bit
    Writing library             : libebml v1.4.2 + libmatroska v1.6.4

    Video
    ID                          : 1
    Format                      : AVC
    Format/Info                 : Advanced Video Codec
    Format profile              : High@L4
    Format settings             : CABAC / 4 Ref Frames
    Format settings, CABAC      : Yes
    Format settings, Reference  : 4 frames
    Codec ID                    : V_MPEG4/ISO/AVC
    Duration                    : 2 h 29 min
    Bit rate mode               : Constant
    Bit rate                    : 7 919 kb/s
    Nominal bit rate            : 10 000 kb/s
    Width                       : 1 920 pixels
    Height                      : 800 pixels
    Display aspect ratio        : 2.40:1
    Frame rate mode             : Constant
    Frame rate                  : 23.976 (24000/1001) FPS
    Color space                 : YUV
    Chroma subsampling          : 4:2:0
    Bit depth                   : 8 bits
    Scan type                   : Progressive
    Bits/(Pixel*Frame)          : 0.215
    Stream size                 : 8.28 GiB (80%)
    Title                       : CinemaniaHDD
    Default                     : Yes
    Forced                      : No
    Color range                 : Limited
    Color primaries             : BT.709
    Transfer characteristics    : BT.709
    Matrix coefficients         : BT.709

    Audio #1
    ID                          : 2
    Format                      : AC-3
    Format/Info                 : Audio Coding 3
    Commercial name             : Dolby Digital
    Codec ID                    : A_AC3
    Duration                    : 2 h 29 min
    Bit rate mode               : Constant
    Bit rate                    : 640 kb/s
    Channel(s)                  : 6 channels
    Channel layout              : L R C LFE Ls Rs
    Sampling rate               : 48.0 kHz
    Frame rate                  : 31.250 FPS (1536 SPF)
    Compression mode            : Lossy
    Stream size                 : 685 MiB (7%)
    Title                       : Español latino [CinemaniaHDD]
    Language                    : Spanish
    Service kind                : Complete Main
    Default                     : Yes
    Forced                      : No

    Audio #2
    ID                          : 3
    Format                      : E-AC-3
    Format/Info                 : Enhanced AC-3
    Commercial name             : Dolby Digital Plus
    Codec ID                    : A_EAC3
    Duration                    : 2 h 29 min
    Bit rate mode               : Constant
    Bit rate                    : 640 kb/s
    Channel(s)                  : 6 channels
    Channel layout              : L R C LFE Ls Rs
    Sampling rate               : 48.0 kHz
    Frame rate                  : 31.250 FPS (1536 SPF)
    Compression mode            : Lossy
    Stream size                 : 685 MiB (7%)
    Title                       : Español latino / E-AC3 [CinemaniaHDD]
    Language                    : Spanish
    Service kind                : Complete Main
    Default                     : No
    Forced                      : No

    Audio #3
    ID                          : 4
    Format                      : E-AC-3
    Format/Info                 : Enhanced AC-3
    Commercial name             : Dolby Digital Plus
    Codec ID                    : A_EAC3
    Duration                    : 2 h 29 min
    Bit rate mode               : Constant
    Bit rate                    : 640 kb/s
    Channel(s)                  : 6 channels
    Channel layout              : L R C LFE Ls Rs
    Sampling rate               : 48.0 kHz
    Frame rate                  : 31.250 FPS (1536 SPF)
    Compression mode            : Lossy
    Stream size                 : 685 MiB (7%)
    Title                       : Inglés [CinemaniaHDD]
    Language                    : English
    Service kind                : Complete Main
    Default                     : No
    Forced                      : No

    Text #1
    ID                          : 5
    Format                      : UTF-8
    Codec ID                    : S_TEXT/UTF8
    Codec ID/Info               : UTF-8 Plain Text
    Duration                    : 2 h 18 min
    Bit rate                    : 13 b/s
    Count of elements           : 441
    Stream size                 : 13.8 KiB (0%)
    Title                       : Forzados [CinemaniaHDD]
    Language                    : Spanish
    Default                     : No
    Forced                      : Yes

    Text #2
    ID                          : 6
    Format                      : UTF-8
    Codec ID                    : S_TEXT/UTF8
    Codec ID/Info               : UTF-8 Plain Text
    Duration                    : 2 h 25 min
    Bit rate                    : 38 b/s
    Count of elements           : 1541
    Stream size                 : 40.9 KiB (0%)
    Title                       : Español latino [CinemaniaHDD]
    Language                    : Spanish
    Default                     : No
    Forced                      : No

    Text #3
    ID                          : 7
    Format                      : UTF-8
    Codec ID                    : S_TEXT/UTF8
    Codec ID/Info               : UTF-8 Plain Text
    Duration                    : 2 h 23 min
    Bit rate                    : 52 b/s
    Count of elements           : 2156
    Stream size                 : 55.0 KiB (0%)
    Title                       : Inglés [CinemaniaHDD]
    Language                    : English
    Default                     : No
    Forced                      : No

    Menu
    00:00:00.000                : Amazon Original
    00:00:06.000                : Studio Logo
    00:00:48.000                : Title Sequence
    00:00:52.000                : Scene 4
    00:03:11.000                : Scene 5
    00:06:38.000                : Scene 6
    00:07:48.000                : Scene 7
    00:09:19.000                : Scene 8
    00:11:04.000                : Scene 9
    00:11:54.000                : Scene 10
    00:12:10.000                : Scene 11
    00:13:43.000                : Scene 12
    00:15:12.000                : Scene 13
    00:16:38.000                : Scene 14
    00:18:30.000                : Scene 15
    00:20:37.000                : Scene 16
    00:26:29.000                : Scene 17
    00:28:30.000                : Scene 18
    00:28:56.000                : Scene 19
    00:29:57.000                : Scene 20
    00:30:44.000                : Scene 21
    00:32:30.000                : Scene 22
    00:34:12.000                : Scene 23
    00:35:35.000                : Scene 24
    00:37:56.000                : Scene 25
    00:39:49.000                : Scene 26
    00:40:38.000                : Scene 27
    00:41:01.000                : Scene 28
    00:44:22.000                : Scene 29
    00:48:49.000                : Scene 30
    00:49:46.000                : Scene 31
    00:51:37.000                : Scene 32
    00:52:22.000                : Scene 33
    00:54:48.000                : Scene 34
    00:55:56.000                : Scene 35
    00:58:29.000                : Scene 36
    01:01:41.000                : Scene 37
    01:03:55.000                : Scene 38
    01:05:47.000                : Scene 39
    01:08:34.000                : Scene 40
    01:11:17.000                : Scene 41
    01:12:13.000                : Scene 42
    01:16:36.000                : Scene 43
    01:17:49.000                : Scene 44
    01:19:57.000                : Scene 45
    01:21:47.000                : Scene 46
    01:23:11.000                : Scene 47
    01:25:00.000                : Scene 48
    01:25:41.000                : Scene 49
    01:26:10.000                : Scene 50
    01:30:35.000                : Scene 51
    01:35:23.000                : Scene 52
    01:40:10.000                : Scene 53
    01:43:09.000                : Scene 54
    01:46:45.000                : Scene 55
    01:49:48.000                : Scene 56
    01:50:00.000                : Scene 57
    01:50:52.000                : Scene 58
    01:51:19.000                : Scene 59
    01:52:02.000                : Scene 60
    01:52:34.000                : Scene 61
    01:53:47.000                : Scene 62
    01:55:41.000                : Scene 63
    01:57:40.000                : Scene 64
    02:02:27.000                : Scene 65
    02:02:42.000                : Scene 66
    02:08:47.000                : Scene 67
    02:13:32.000                : Scene 68
    02:16:37.000                : Scene 69
    02:16:53.000                : Scene 70
    02:17:05.000                : Scene 71
    02:17:36.000                : Scene 72
    02:17:59.000                : Acknowledgement
    02:18:01.000                : Acknowledgement
    02:18:11.000                : Acknowledgement
    02:19:00.000                : End Credits

     

  • Peso: 10.3 GiB

Sinopsis

Se organiza una misión de rescate en Tailandia, donde un grupo de niños y su entrenador de fútbol están atrapados en unas cuevas subterráneas que se están inundando.

Ficha técnica

  • Titulo original: Thirteen Lives
  • Fecha de lanzamiento: 18-07-2022 (United Kingdom, United States of America)
  • Director: Ron Howard
  • Género: Drama, Suspenso

Video trailer de la película

Enlaces de descarga

Rip de Bluray

Descargar Thirteen Lives (2022) AMZN WEB-DL 1080p Latino




Aportes de DPeliculasHDmega la pass es:dpeliculashdmega.org Aportes de CinemaniaHD la pass es:cinemaniahdd.com
Guardado en : Drama , Suspenso

Películas relacionadas

descargar Thirteen Lives (2022) AMZN WEB-DL 1080p Latino 1080p 1080p gratis, Thirteen Lives (2022) AMZN WEB-DL 1080p Latino 1080p mega 1 link, Thirteen Lives (2022) AMZN WEB-DL 1080p Latino 1080p pelicula completa, descargar Thirteen Lives (2022) AMZN WEB-DL 1080p Latino 1080p gratis en mega.

Thirteen Lives (2022) AMZN WEB-DL 1080p Latino pelicula full hd, Thirteen Lives (2022) AMZN WEB-DL 1080p Latino mega latino, Thirteen Lives (2022) AMZN WEB-DL 1080p Latino 4k latino, Thirteen Lives (2022) AMZN WEB-DL 1080p Latino pelicula completa, Thirteen Lives (2022) AMZN WEB-DL 1080p Latino descargar gratis, descargar Thirteen Lives (2022) AMZN WEB-DL 1080p Latino pelicula latino, Thirteen Lives (2022) AMZN WEB-DL 1080p Latino 1 link mega, Thirteen Lives (2022) AMZN WEB-DL 1080p Latino 1 link google drive, Thirteen Lives (2022) AMZN WEB-DL 1080p Latino hd 1080p latino.
Comentarios 0