×

¿Problemas para descargar con Mozilla, EDGE? Deshabilita la opción "Abrir vinculos en una pestaña nueva" tal como lo muestra ésta imagen.

Thieves of the Wood (2019) Temporada 1 NF WEB-DL 1080p latino

1.486 vistas

Información de Thieves of the Wood (2019) Temporada 1 NF WEB-DL 1080p latino

Datos de la película

  • Calidad: WEBDL
  • Audio: Se especifica abajo de la Sinopsis
  • Subtitulos: Español Latino SRT- FORZADOS SRT
  • Resolución: 1920x1080
  • Formato: MKV
  • Codec: H.264
  • Encoder: cinemaniahdd
  • Mediainfo: Clic para Mostrar Datos Ver
  • Thieves of the Wood S01E01 NF WEB-DL 1080p Latino.mkv
    Format                      : Matroska
    Format version              : Version 4
    File size                   : 1.21 GiB
    Duration                    : 45 min 44 s
    Overall bit rate mode       : Variable
    Overall bit rate            : 3 792 kb/s
    Movie name                  : Thieves of the Wood S01E01 - CinemaniaHDD.Net
    Encoded date                : UTC 2020-01-02 22:12:28
    Writing application         : mkvmerge v38.0.0 ('The Silent Type') 64-bit
    Writing library             : libebml v1.3.9 + libmatroska v1.5.2

    Video
    ID                          : 1
    Format                      : AVC
    Format/Info                 : Advanced Video Codec
    Format profile              : High@L4.1
    Format settings             : CABAC / 4 Ref Frames
    Format settings, CABAC      : Yes
    Format settings, ReFrames   : 4 frames
    Codec ID                    : V_MPEG4/ISO/AVC
    Duration                    : 45 min 44 s
    Bit rate mode               : Variable
    Bit rate                    : 3 597 kb/s
    Maximum bit rate            : 40.0 Mb/s
    Width                       : 1 920 pixels
    Height                      : 960 pixels
    Display aspect ratio        : 2.000
    Frame rate mode             : Constant
    Frame rate                  : 25.000 FPS
    Color space                 : YUV
    Chroma subsampling          : 4:2:0
    Bit depth                   : 8 bits
    Scan type                   : Progressive
    Bits/(Pixel*Frame)          : 0.078
    Stream size                 : 1.15 GiB (95%)
    Title                       : CinemaniaHDD
    Default                     : Yes
    Forced                      : No
    Color range                 : Limited
    Matrix coefficients         : BT.709

    Audio #1
    ID                          : 2
    Format                      : AAC LC SBR
    Format/Info                 : Advanced Audio Codec Low Complexity with Spectral Band Replication
    Commercial name             : HE-AAC
    Format settings             : Explicit
    Codec ID                    : A_AAC-2
    Duration                    : 45 min 44 s
    Bit rate                    : 96.0 kb/s
    Channel(s)                  : 2 channels
    Channel layout              : L R
    Sampling rate               : 48.0 kHz
    Frame rate                  : 23.438 FPS (2048 SPF)
    Compression mode            : Lossy
    Stream size                 : 31.4 MiB (3%)
    Title                       : Español latino [CinemaniaHDD]
    Language                    : Spanish
    Default                     : Yes
    Forced                      : No

    Audio #2
    ID                          : 3
    Format                      : AAC LC SBR
    Format/Info                 : Advanced Audio Codec Low Complexity with Spectral Band Replication
    Commercial name             : HE-AAC
    Format settings             : Explicit
    Codec ID                    : A_AAC-2
    Duration                    : 45 min 44 s
    Bit rate                    : 96.0 kb/s
    Channel(s)                  : 2 channels
    Channel layout              : L R
    Sampling rate               : 48.0 kHz
    Frame rate                  : 23.438 FPS (2048 SPF)
    Compression mode            : Lossy
    Stream size                 : 31.4 MiB (3%)
    Title                       : Flamenco [CinemaniaHDD]
    Language                    : Dutch
    Default                     : No
    Forced                      : No

    Text #1
    ID                          : 4
    Format                      : UTF-8
    Codec ID                    : S_TEXT/UTF8
    Codec ID/Info               : UTF-8 Plain Text
    Duration                    : 44 min 51 s
    Bit rate                    : 0 b/s
    Count of elements           : 12
    Stream size                 : 253 Bytes (0%)
    Title                       : Forzados [CinemaniaHDD]
    Language                    : Spanish
    Default                     : Yes
    Forced                      : Yes

    Text #2
    ID                          : 5
    Format                      : UTF-8
    Codec ID                    : S_TEXT/UTF8
    Codec ID/Info               : UTF-8 Plain Text
    Duration                    : 44 min 51 s
    Bit rate                    : 34 b/s
    Count of elements           : 422
    Stream size                 : 11.3 KiB (0%)
    Title                       : Español latino [CinemaniaHDD]
    Language                    : Spanish
    Default                     : No
    Forced                      : No

     

  • Peso: 1.21 GiB

Sinopsis

El carismático salteador Jan de Licht lidera a los oprimidos y oprimidos en una revuelta contra la corrupta aristocracia de Flandes en el siglo XVIII.

Español Latino HE-AAC 2.0 – Flamenco HE-AAC 2.0 Netflix

Ficha técnica

Video trailer de la película

Enlaces de descarga

Rip de Bluray

Descargar Thieves of the Wood (2019) Temporada 1 NF WEB-DL 1080p latino




Aportes de DPeliculasHDmega la pass es:dpeliculashdmega.org Aportes de CinemaniaHD la pass es:cinemaniahdd.com

Películas relacionadas

descargar Thieves of the Wood (2019) Temporada 1 NF WEB-DL 1080p latino WEBDL 1080p gratis, Thieves of the Wood (2019) Temporada 1 NF WEB-DL 1080p latino WEBDL mega 1 link, Thieves of the Wood (2019) Temporada 1 NF WEB-DL 1080p latino WEBDL serie completa, descargar Thieves of the Wood (2019) Temporada 1 NF WEB-DL 1080p latino WEBDL gratis en mega.

Thieves of the Wood (2019) Temporada 1 NF WEB-DL 1080p latino pelicula full hd, Thieves of the Wood (2019) Temporada 1 NF WEB-DL 1080p latino mega latino, Thieves of the Wood (2019) Temporada 1 NF WEB-DL 1080p latino 4k latino, Thieves of the Wood (2019) Temporada 1 NF WEB-DL 1080p latino pelicula completa, Thieves of the Wood (2019) Temporada 1 NF WEB-DL 1080p latino descargar gratis, descargar Thieves of the Wood (2019) Temporada 1 NF WEB-DL 1080p latino pelicula latino, Thieves of the Wood (2019) Temporada 1 NF WEB-DL 1080p latino 1 link mega, Thieves of the Wood (2019) Temporada 1 NF WEB-DL 1080p latino 1 link google drive, Thieves of the Wood (2019) Temporada 1 NF WEB-DL 1080p latino hd 1080p latino.
Comentarios 0