×

¿Problemas para descargar con Mozilla, EDGE? Deshabilita la opción "Abrir vinculos en una pestaña nueva" tal como lo muestra ésta imagen.

The Zookeeper’s Wife (2017) REMUX 1080p Latino

673 vistas

Información de The Zookeeper’s Wife (2017) REMUX 1080p Latino

Datos de la película

  • Calidad: Full 1080p
  • Audio: Español Latino DTS 5.1 BLURAY - Ingles DTS 5.1 BLURAY
  • Subtitulos: Español Latino SRT- FORZADOS SRT
  • Resolución: 1920x1080p
  • Formato: MKV
  • Codec: H.264
  • Encoder: Dracarys
  • Mediainfo: Clic para Mostrar Datos Ver
  • Format                      : Matroska
    Format version              : Version 4
    File size                   : 31.6 GiB
    Duration                    : 2 h 6 min
    Overall bit rate mode       : Variable
    Overall bit rate            : 35.8 Mb/s
    Movie name                  : CinemaniaHDD.net
    Encoded date                : UTC 2019-07-03 05:31:27
    Writing application         : mkvmerge v30.1.0 ('Forever And More') 64-bit
    Writing library             : libebml v1.3.6 + libmatroska v1.4.9

    Video
    ID                          : 1
    Format                      : AVC
    Format/Info                 : Advanced Video Codec
    Format profile              : High@L4.1
    Format settings             : CABAC / 4 Ref Frames
    Format settings, CABAC      : Yes
    Format settings, ReFrames   : 4 frames
    Codec ID                    : V_MPEG4/ISO/AVC
    Duration                    : 2 h 6 min
    Bit rate mode               : Variable
    Bit rate                    : 31.6 Mb/s
    Maximum bit rate            : 35.0 Mb/s
    Width                       : 1 920 pixels
    Height                      : 1 080 pixels
    Display aspect ratio        : 16:9
    Frame rate mode             : Constant
    Frame rate                  : 23.976 (24000/1001) FPS
    Color space                 : YUV
    Chroma subsampling          : 4:2:0
    Bit depth                   : 8 bits
    Scan type                   : Progressive
    Bits/(Pixel*Frame)          : 0.635
    Stream size                 : 27.9 GiB (88%)
    Language                    : English
    Default                     : Yes
    Forced                      : No

    Audio #1
    ID                          : 2
    Format                      : DTS XLL
    Format/Info                 : Digital Theater Systems
    Commercial name             : DTS-HD Master Audio
    Codec ID                    : A_DTS
    Duration                    : 2 h 6 min
    Bit rate mode               : Variable
    Bit rate                    : 3 420 kb/s
    Channel(s)                  : 6 channels
    Channel layout              : C L R Ls Rs LFE
    Sampling rate               : 48.0 kHz
    Frame rate                  : 93.750 FPS (512 SPF)
    Bit depth                   : 24 bits
    Compression mode            : Lossless
    Stream size                 : 3.02 GiB (10%)
    Language                    : English
    Default                     : No
    Forced                      : No

    Audio #2
    ID                          : 3
    Format                      : DTS
    Format/Info                 : Digital Theater Systems
    Codec ID                    : A_DTS
    Duration                    : 2 h 6 min
    Bit rate mode               : Constant
    Bit rate                    : 768 kb/s
    Channel(s)                  : 6 channels
    Channel layout              : C L R Ls Rs LFE
    Sampling rate               : 48.0 kHz
    Frame rate                  : 93.750 FPS (512 SPF)
    Bit depth                   : 24 bits
    Compression mode            : Lossy
    Stream size                 : 695 MiB (2%)
    Language                    : Spanish
    Default                     : Yes
    Forced                      : No

    Text #1
    ID                          : 4
    Format                      : PGS
    Muxing mode                 : zlib
    Codec ID                    : S_HDMV/PGS
    Codec ID/Info               : Picture based subtitle format used on BDs/HD-DVDs
    Duration                    : 2 h 4 min
    Bit rate                    : 19.5 kb/s
    Count of elements           : 1805
    Stream size                 : 17.4 MiB (0%)
    Language                    : Spanish
    Default                     : No
    Forced                      : No

    Text #2
    ID                          : 5
    Format                      : PGS
    Muxing mode                 : zlib
    Codec ID                    : S_HDMV/PGS
    Codec ID/Info               : Picture based subtitle format used on BDs/HD-DVDs
    Duration                    : 1 h 25 min
    Bit rate                    : 39 b/s
    Count of elements           : 8
    Stream size                 : 24.5 KiB (0%)
    Language                    : Spanish
    Default                     : No
    Forced                      : No

    Text #3
    ID                          : 6
    Format                      : UTF-8
    Codec ID                    : S_TEXT/UTF8
    Codec ID/Info               : UTF-8 Plain Text
    Duration                    : 2 h 4 min
    Bit rate                    : 31 b/s
    Count of elements           : 902
    Stream size                 : 28.7 KiB (0%)
    Language                    : Spanish
    Default                     : No
    Forced                      : No

    Text #4
    ID                          : 7
    Format                      : UTF-8
    Codec ID                    : S_TEXT/UTF8
    Codec ID/Info               : UTF-8 Plain Text
    Duration                    : 1 h 25 min
    Bit rate                    : 0 b/s
    Count of elements           : 4
    Stream size                 : 39.0 Bytes (0%)
    Language                    : Spanish
    Default                     : Yes
    Forced                      : Yes

  • Peso: 31.6 GiB

Sinopsis

Jan y Antonina Zabinski, el director del zoo de Varsovia y su esposa, ayudaron a salvar a cientos de personas (y también a muchos animales del Zoo) de los nazis tras la invasión de Polonia por las tropas alemanas en septiembre de 1939.

Ficha técnica

  • Titulo original: The Zookeeper's Wife
  • Fecha de lanzamiento: 31-03-2017 (Czech Republic, United Kingdom, United States of America)
  • Director: Niki Caro
  • Género: Drama, Historia, Remux

Video trailer de la película

Enlaces de descarga

Rip de Bluray

Descargar The Zookeeper’s Wife (2017) REMUX 1080p Latino




Aportes de DPeliculasHDmega la pass es:dpeliculashdmega.org Aportes de CinemaniaHD la pass es:cinemaniahdd.com Aportes recientes:cinemaniahdd.net
Guardado en : Drama , Historia , Remux

Películas relacionadas

descargar The Zookeeper’s Wife (2017) REMUX 1080p Latino Full 1080p 1080p gratis, The Zookeeper’s Wife (2017) REMUX 1080p Latino Full 1080p mega 1 link, The Zookeeper’s Wife (2017) REMUX 1080p Latino Full 1080p pelicula completa, descargar The Zookeeper’s Wife (2017) REMUX 1080p Latino Full 1080p gratis en mega.

The Zookeeper’s Wife (2017) REMUX 1080p Latino pelicula full hd, The Zookeeper’s Wife (2017) REMUX 1080p Latino mega latino, The Zookeeper’s Wife (2017) REMUX 1080p Latino 4k latino, The Zookeeper’s Wife (2017) REMUX 1080p Latino pelicula completa, The Zookeeper’s Wife (2017) REMUX 1080p Latino descargar gratis, descargar The Zookeeper’s Wife (2017) REMUX 1080p Latino pelicula latino, The Zookeeper’s Wife (2017) REMUX 1080p Latino 1 link mega, The Zookeeper’s Wife (2017) REMUX 1080p Latino 1 link google drive, The Zookeeper’s Wife (2017) REMUX 1080p Latino hd 1080p latino.
Comentarios 0