×

¿Problemas para descargar con Mozilla, EDGE? Deshabilita la opción "Abrir vinculos en una pestaña nueva" tal como lo muestra ésta imagen.

The Zookeeper’s Wife (2017) REMUX 1080p Latino – CMHDD

174 vistas

Información de The Zookeeper’s Wife (2017) REMUX 1080p Latino – CMHDD

Datos de la película

  • Calidad: Full 1080p
  • Audio: Español Latino DTS 5.1 BLURAY - Ingles DTS 5.1 BLURAY
  • Subtitulos: Español Latino PGS
  • Resolución: 1920x1080p
  • Formato: MKV
  • Codec: H.264
  • Encoder: Dracarys
  • Mediainfo: Clic para Mostrar Datos Ver
  • Format                      : Matroska
    Format version              : Version 4
    File size                   : 31.6 GiB
    Duration                    : 2 h 6 min
    Overall bit rate mode       : Variable
    Overall bit rate            : 35.8 Mb/s
    Movie name                  : The Zookeeper's Wife (2017) REMUX 1080p Latino - CMHDD
    Encoded date                : UTC 2023-05-30 03:36:28
    Writing application         : mkvmerge v47.0.0 ('Black Flag') 64-bit
    Writing library             : libebml v1.3.10 + libmatroska v1.5.2
    Cover                       : Yes
    Attachments                 : cover.jpg

    Video
    ID                          : 1
    ID in the original source m : 4113 (0x1011)
    Format                      : AVC
    Format/Info                 : Advanced Video Codec
    Format profile              : High@L4.1
    Format settings             : CABAC / 4 Ref Frames
    Format settings, CABAC      : Yes
    Format settings, Reference  : 4 frames
    Codec ID                    : V_MPEG4/ISO/AVC
    Duration                    : 2 h 6 min
    Bit rate mode               : Variable
    Bit rate                    : 31.6 Mb/s
    Maximum bit rate            : 35.0 Mb/s
    Width                       : 1 920 pixels
    Height                      : 1 080 pixels
    Display aspect ratio        : 16:9
    Frame rate mode             : Constant
    Frame rate                  : 23.976 (24000/1001) FPS
    Color space                 : YUV
    Chroma subsampling          : 4:2:0
    Bit depth                   : 8 bits
    Scan type                   : Progressive
    Bits/(Pixel*Frame)          : 0.635
    Stream size                 : 27.9 GiB (88%)
    Default                     : Yes
    Forced                      : No
    Original source medium      : Blu-ray

    Audio #1
    ID                          : 2
    ID in the original source m : 4352 (0x1100)
    Format                      : DTS XLL
    Format/Info                 : Digital Theater Systems
    Commercial name             : DTS-HD Master Audio
    Codec ID                    : A_DTS
    Duration                    : 2 h 6 min
    Bit rate mode               : Variable
    Bit rate                    : 3 420 kb/s
    Channel(s)                  : 6 channels
    Channel layout              : C L R Ls Rs LFE
    Sampling rate               : 48.0 kHz
    Frame rate                  : 93.750 FPS (512 SPF)
    Bit depth                   : 24 bits
    Compression mode            : Lossless
    Stream size                 : 3.02 GiB (10%)
    Language                    : English
    Default                     : No
    Forced                      : No
    Original source medium      : Blu-ray

    Audio #2
    ID                          : 3
    ID in the original source m : 4353 (0x1101)
    Format                      : DTS
    Format/Info                 : Digital Theater Systems
    Codec ID                    : A_DTS
    Duration                    : 2 h 6 min
    Bit rate mode               : Constant
    Bit rate                    : 768 kb/s
    Channel(s)                  : 6 channels
    Channel layout              : C L R Ls Rs LFE
    Sampling rate               : 48.0 kHz
    Frame rate                  : 93.750 FPS (512 SPF)
    Bit depth                   : 24 bits
    Compression mode            : Lossy
    Stream size                 : 695 MiB (2%)
    Language                    : Spanish
    Default                     : Yes
    Forced                      : No
    Original source medium      : Blu-ray

    Text #1
    ID                          : 4
    ID in the original source m : 4609 (0x1201)
    Format                      : PGS
    Muxing mode                 : zlib
    Codec ID                    : S_HDMV/PGS
    Codec ID/Info               : Picture based subtitle format used on BDs/HD-DVDs
    Duration                    : 2 h 4 min
    Bit rate                    : 19.5 kb/s
    Frame rate                  : 0.241 FPS
    Count of elements           : 1805
    Stream size                 : 17.4 MiB (0%)
    Language                    : Spanish
    Default                     : No
    Forced                      : No
    Original source medium      : Blu-ray

    Text #2
    ID                          : 5
    ID in the original source m : 4611 (0x1203)
    Format                      : PGS
    Muxing mode                 : zlib
    Codec ID                    : S_HDMV/PGS
    Codec ID/Info               : Picture based subtitle format used on BDs/HD-DVDs
    Duration                    : 1 h 25 min
    Bit rate                    : 39 b/s
    Frame rate                  : 0.002 FPS
    Count of elements           : 8
    Stream size                 : 24.5 KiB (0%)
    Language                    : Spanish
    Default                     : No
    Forced                      : No
    Original source medium      : Blu-ray

    Menu
    00:00:00.000                : en:Capítulo 01
    00:04:55.336                : en:Capítulo 02
    00:14:23.112                : en:Capítulo 03
    00:21:16.942                : en:Capítulo 04
    00:29:50.246                : en:Capítulo 05
    00:35:39.679                : en:Capítulo 06
    00:40:25.589                : en:Capítulo 07
    00:49:46.191                : en:Capítulo 08
    00:54:01.196                : en:Capítulo 09
    01:00:25.663                : en:Capítulo 10
    01:06:21.686                : en:Capítulo 11
    01:11:48.929                : en:Capítulo 12
    01:19:45.864                : en:Capítulo 13
    01:25:10.647                : en:Capítulo 14
    01:30:12.448                : en:Capítulo 15
    01:36:42.421                : en:Capítulo 16
    01:39:32.925                : en:Capítulo 17
    01:46:18.372                : en:Capítulo 18
    01:55:17.160                : en:Capítulo 19
    02:01:44.297                : en:Capítulo 20

  • Peso: 31.6 GiB

Sinopsis

Jan y Antonina Zabinski, el director del zoo de Varsovia y su esposa, ayudaron a salvar a cientos de personas (y también a muchos animales del Zoo) de los nazis tras la invasión de Polonia por las tropas alemanas en septiembre de 1939.

Ficha técnica

  • Titulo original: The Zookeeper's Wife
  • Fecha de lanzamiento: 24-03-2017 (Czech Republic, United Kingdom, United States of America)
  • Director: Niki Caro
  • Género: Bélica, Drama, Historia

Video trailer de la película

Enlaces de descarga

Rip de Bluray

Descargar The Zookeeper’s Wife (2017) REMUX 1080p Latino – CMHDD


Aportes de DPeliculasHDmega la pass es:dpeliculashdmega.org Aportes de CinemaniaHD la pass es:cinemaniahdd.com Aportes recientes:cinemaniahdd.net
Guardado en : Bélica , Drama , Historia

Películas relacionadas

descargar The Zookeeper’s Wife (2017) REMUX 1080p Latino – CMHDD Full 1080p 1080p gratis, The Zookeeper’s Wife (2017) REMUX 1080p Latino – CMHDD Full 1080p mega 1 link, The Zookeeper’s Wife (2017) REMUX 1080p Latino – CMHDD Full 1080p pelicula completa, descargar The Zookeeper’s Wife (2017) REMUX 1080p Latino – CMHDD Full 1080p gratis en mega.

The Zookeeper’s Wife (2017) REMUX 1080p Latino – CMHDD pelicula full hd, The Zookeeper’s Wife (2017) REMUX 1080p Latino – CMHDD mega latino, The Zookeeper’s Wife (2017) REMUX 1080p Latino – CMHDD 4k latino, The Zookeeper’s Wife (2017) REMUX 1080p Latino – CMHDD pelicula completa, The Zookeeper’s Wife (2017) REMUX 1080p Latino – CMHDD descargar gratis, descargar The Zookeeper’s Wife (2017) REMUX 1080p Latino – CMHDD pelicula latino, The Zookeeper’s Wife (2017) REMUX 1080p Latino – CMHDD 1 link mega, The Zookeeper’s Wife (2017) REMUX 1080p Latino – CMHDD 1 link google drive, The Zookeeper’s Wife (2017) REMUX 1080p Latino – CMHDD hd 1080p latino.
Comentarios 0