×

¿Problemas para descargar con Mozilla, EDGE? Deshabilita la opción "Abrir vinculos en una pestaña nueva" tal como lo muestra ésta imagen.

The X-Files [SEASON 8] REMUX 1080p Latino – CMHDD

168 vistas

Información de The X-Files [SEASON 8] REMUX 1080p Latino – CMHDD

Datos de la película

  • Calidad: Full 1080p
  • Audio: Español Latino AC3 2.0 BLURAY - Ingles DTS 5.1 BLURAY
  • Subtitulos: Español Latino PGS
  • Resolución: 1920x1080p
  • Formato: MKV
  • Codec: H.264
  • Encoder: Dracarys
  • Mediainfo: Clic para Mostrar Datos Ver
  • Format                      : Matroska
    Format version              : Version 4
    File size                   : 9.06 GiB
    Duration                    : 44 min 44 s
    Overall bit rate mode       : Variable
    Overall bit rate            : 29.0 Mb/s
    Movie name                  : The X-Files, Season 8 E01
    Encoded date                : UTC 2021-04-28 00:51:38
    Writing application         : mkvmerge v56.1.0 ('My Friend') 64-bit
    Writing library             : libebml v1.4.2 + libmatroska v1.6.4

    Video
    ID                          : 1
    Format                      : AVC
    Format/Info                 : Advanced Video Codec
    Format profile              : High@L4.1
    Format settings             : CABAC / 4 Ref Frames
    Format settings, CABAC      : Yes
    Format settings, Reference  : 4 frames
    Format settings, GOP        : M=3, N=12
    Codec ID                    : V_MPEG4/ISO/AVC
    Duration                    : 44 min 44 s
    Bit rate mode               : Variable
    Bit rate                    : 24.7 Mb/s
    Maximum bit rate            : 38.0 Mb/s
    Width                       : 1 920 pixels
    Height                      : 1 080 pixels
    Display aspect ratio        : 16:9
    Frame rate mode             : Constant
    Frame rate                  : 23.976 (24000/1001) FPS
    Color space                 : YUV
    Chroma subsampling          : 4:2:0
    Bit depth                   : 8 bits
    Scan type                   : Progressive
    Bits/(Pixel*Frame)          : 0.496
    Stream size                 : 7.71 GiB (85%)
    Default                     : Yes
    Forced                      : No

    Audio #1
    ID                          : 2
    Format                      : DTS XLL
    Format/Info                 : Digital Theater Systems
    Commercial name             : DTS-HD Master Audio
    Codec ID                    : A_DTS
    Duration                    : 44 min 44 s
    Bit rate mode               : Variable
    Bit rate                    : 4 106 kb/s
    Channel(s)                  : 6 channels
    Channel layout              : C L R Ls Rs LFE
    Sampling rate               : 48.0 kHz
    Frame rate                  : 93.750 FPS (512 SPF)
    Bit depth                   : 24 bits
    Compression mode            : Lossless
    Stream size                 : 1.28 GiB (14%)
    Language                    : English
    Default                     : No
    Forced                      : No

    Audio #2
    ID                          : 3
    Format                      : AC-3
    Format/Info                 : Audio Coding 3
    Commercial name             : Dolby Digital
    Codec ID                    : A_AC3
    Duration                    : 44 min 44 s
    Bit rate mode               : Constant
    Bit rate                    : 224 kb/s
    Channel(s)                  : 2 channels
    Channel layout              : L R
    Sampling rate               : 48.0 kHz
    Frame rate                  : 31.250 FPS (1536 SPF)
    Compression mode            : Lossy
    Stream size                 : 71.7 MiB (1%)
    Language                    : Spanish
    Service kind                : Complete Main
    Default                     : Yes
    Forced                      : No

    Text
    ID                          : 4
    Format                      : PGS
    Muxing mode                 : zlib
    Codec ID                    : S_HDMV/PGS
    Codec ID/Info               : Picture based subtitle format used on BDs/HD-DVDs
    Duration                    : 44 min 24 s
    Bit rate                    : 29.2 kb/s
    Count of elements           : 738
    Stream size                 : 9.27 MiB (0%)
    Language                    : Spanish
    Default                     : No
    Forced                      : No

  • Peso: 188 GiB

Sinopsis

Expediente X es una serie de televisión estadounidense de ciencia ficción y misterio, que emitió la cadena FOX y fue creada por Chris Carter, centrada en los casos que investigan dos agentes del FBI, clasificados como «Expedientes X»: fenómenos paranormales, avistamiento de ovnis, criaturas extrañas, etc.

 

La serie ha sido uno de los mayores éxitos de la cadena FOX. Sus personajes y frases se han convertido en iconos de la cultura popular al explotar e inspirar una gran cantidad de teorías sobre conspiraciones y existencia de vida extraterrestre.

Ficha técnica

Video trailer de la película

Enlaces de descarga

Rip de Bluray

Descargar The X-Files [SEASON 8] REMUX 1080p Latino – CMHDD


Aportes de DPeliculasHDmega la pass es:dpeliculashdmega.org Aportes de CinemaniaHD la pass es:cinemaniahdd.com
Guardado en : Drama , Misterio , Sci-Fi & Fantasy

Películas relacionadas

descargar The X-Files [SEASON 8] REMUX 1080p Latino – CMHDD Full 1080p 1080p gratis, The X-Files [SEASON 8] REMUX 1080p Latino – CMHDD Full 1080p mega 1 link, The X-Files [SEASON 8] REMUX 1080p Latino – CMHDD Full 1080p pelicula completa, descargar The X-Files [SEASON 8] REMUX 1080p Latino – CMHDD Full 1080p gratis en mega.

The X-Files [SEASON 8] REMUX 1080p Latino – CMHDD pelicula full hd, The X-Files [SEASON 8] REMUX 1080p Latino – CMHDD mega latino, The X-Files [SEASON 8] REMUX 1080p Latino – CMHDD 4k latino, The X-Files [SEASON 8] REMUX 1080p Latino – CMHDD pelicula completa, The X-Files [SEASON 8] REMUX 1080p Latino – CMHDD descargar gratis, descargar The X-Files [SEASON 8] REMUX 1080p Latino – CMHDD pelicula latino, The X-Files [SEASON 8] REMUX 1080p Latino – CMHDD 1 link mega, The X-Files [SEASON 8] REMUX 1080p Latino – CMHDD 1 link google drive, The X-Files [SEASON 8] REMUX 1080p Latino – CMHDD hd 1080p latino.