×

¿Problemas para descargar con Mozilla, EDGE? Deshabilita la opción "Abrir vinculos en una pestaña nueva" tal como lo muestra ésta imagen.

The X-Files [SEASON 4] REMUX 1080p Latino – CMHDD

212 vistas

Información de The X-Files [SEASON 4] REMUX 1080p Latino – CMHDD

Datos de la película

  • Calidad: Full 1080p
  • Audio: Español Latino AC3 2.0 BLURAY - Ingles DTS 5.1 BLURAY
  • Subtitulos: Español Latino PGS
  • Resolución: 1920x1080p
  • Formato: MKV
  • Codec: H.264
  • Encoder: Dracarys
  • Mediainfo: Clic para Mostrar Datos Ver
  • Format                      : Matroska
    Format version              : Version 4
    File size                   : 8.83 GiB
    Duration                    : 43 min 44 s
    Overall bit rate mode       : Variable
    Overall bit rate            : 28.9 Mb/s
    Movie name                  : The X-Files, Season 4 E01
    Encoded date                : UTC 2021-04-25 02:02:45
    Writing application         : mkvmerge v51.0.0 ('I Wish') 64-bit
    Writing library             : libebml v1.4.0 + libmatroska v1.6.2

    Video
    ID                          : 1
    Format                      : AVC
    Format/Info                 : Advanced Video Codec
    Format profile              : High@L4.1
    Format settings             : CABAC / 4 Ref Frames
    Format settings, CABAC      : Yes
    Format settings, Reference  : 4 frames
    Codec ID                    : V_MPEG4/ISO/AVC
    Duration                    : 43 min 44 s
    Bit rate mode               : Variable
    Bit rate                    : 24.7 Mb/s
    Maximum bit rate            : 38.0 Mb/s
    Width                       : 1 920 pixels
    Height                      : 1 080 pixels
    Display aspect ratio        : 16:9
    Frame rate mode             : Constant
    Frame rate                  : 23.976 (24000/1001) FPS
    Color space                 : YUV
    Chroma subsampling          : 4:2:0
    Bit depth                   : 8 bits
    Scan type                   : Progressive
    Bits/(Pixel*Frame)          : 0.496
    Stream size                 : 7.54 GiB (85%)
    Default                     : Yes
    Forced                      : No

    Audio #1
    ID                          : 2
    Format                      : DTS XLL
    Format/Info                 : Digital Theater Systems
    Commercial name             : DTS-HD Master Audio
    Codec ID                    : A_DTS
    Duration                    : 43 min 44 s
    Bit rate mode               : Variable
    Bit rate                    : 3 988 kb/s
    Channel(s)                  : 6 channels
    Channel layout              : C L R Ls Rs LFE
    Sampling rate               : 48.0 kHz
    Frame rate                  : 93.750 FPS (512 SPF)
    Bit depth                   : 24 bits
    Compression mode            : Lossless
    Stream size                 : 1.22 GiB (14%)
    Language                    : English
    Default                     : No
    Forced                      : No

    Audio #2
    ID                          : 3
    Format                      : AC-3
    Format/Info                 : Audio Coding 3
    Commercial name             : Dolby Digital
    Codec ID                    : A_AC3
    Duration                    : 43 min 44 s
    Bit rate mode               : Constant
    Bit rate                    : 224 kb/s
    Channel(s)                  : 2 channels
    Channel layout              : L R
    Sampling rate               : 48.0 kHz
    Frame rate                  : 31.250 FPS (1536 SPF)
    Compression mode            : Lossy
    Stream size                 : 70.1 MiB (1%)
    Language                    : Spanish
    Service kind                : Complete Main
    Default                     : Yes
    Forced                      : No

    Text
    ID                          : 4
    Format                      : PGS
    Muxing mode                 : zlib
    Codec ID                    : S_HDMV/PGS
    Codec ID/Info               : Picture based subtitle format used on BDs/HD-DVDs
    Duration                    : 43 min 28 s
    Bit rate                    : 36.7 kb/s
    Count of elements           : 872
    Stream size                 : 11.4 MiB (0%)
    Language                    : Spanish
    Default                     : No
    Forced                      : No

  • Peso: 216 GiB

Sinopsis

Expediente X es una serie de televisión estadounidense de ciencia ficción y misterio, que emitió la cadena FOX y fue creada por Chris Carter, centrada en los casos que investigan dos agentes del FBI, clasificados como «Expedientes X»: fenómenos paranormales, avistamiento de ovnis, criaturas extrañas, etc.

 

La serie ha sido uno de los mayores éxitos de la cadena FOX. Sus personajes y frases se han convertido en iconos de la cultura popular al explotar e inspirar una gran cantidad de teorías sobre conspiraciones y existencia de vida extraterrestre.

Ficha técnica

Video trailer de la película

Enlaces de descarga

Rip de Bluray

Descargar The X-Files [SEASON 4] REMUX 1080p Latino – CMHDD


Aportes de DPeliculasHDmega la pass es:dpeliculashdmega.org Aportes de CinemaniaHD la pass es:cinemaniahdd.com
Guardado en : Drama , Misterio , Sci-Fi & Fantasy

Películas relacionadas

  • Paradise Highway (2022) HD 1080p Latino

    Paradise Highway (2022) HD 1080p Latino

    2022
    Paradise Highway (2022) HD 1080p Latino

    1h 55m 2022

    Descargar Paradise Highway (2022) HD 1080p Latino. Un camionero se ha visto obligado a pasar de contrabando...

    Director: Anna Gutto

    Género: Crimen

    Actores: Xavier Scott Evans

  • Paradise Highway (2022) PLACEBO Full HD 1080p Latino

    Paradise Highway (2022) PLACEBO Full HD 1080p Latino

    2022
    Paradise Highway (2022) PLACEBO Full HD 1080p Latino

    1h 55m 2022

    Descargar Paradise Highway (2022) PLACEBO Full HD 1080p Latino. Un camionero se ha visto obligado a pasar...

    Director: Anna Gutto

    Género: Crimen

    Actores: Xavier Scott Evans

  • Paradise Highway (2022) REMUX 1080p Latino

    Paradise Highway (2022) REMUX 1080p Latino

    2022
    Paradise Highway (2022) REMUX 1080p Latino

    1h 55m 2022

    Descargar Paradise Highway (2022) REMUX 1080p Latino. Un camionero se ha visto obligado a pasar de contrabando...

    Director: Anna Gutto

    Género: Crimen

    Actores: Xavier Scott Evans

descargar The X-Files [SEASON 4] REMUX 1080p Latino – CMHDD Full 1080p 1080p gratis, The X-Files [SEASON 4] REMUX 1080p Latino – CMHDD Full 1080p mega 1 link, The X-Files [SEASON 4] REMUX 1080p Latino – CMHDD Full 1080p pelicula completa, descargar The X-Files [SEASON 4] REMUX 1080p Latino – CMHDD Full 1080p gratis en mega.

The X-Files [SEASON 4] REMUX 1080p Latino – CMHDD pelicula full hd, The X-Files [SEASON 4] REMUX 1080p Latino – CMHDD mega latino, The X-Files [SEASON 4] REMUX 1080p Latino – CMHDD 4k latino, The X-Files [SEASON 4] REMUX 1080p Latino – CMHDD pelicula completa, The X-Files [SEASON 4] REMUX 1080p Latino – CMHDD descargar gratis, descargar The X-Files [SEASON 4] REMUX 1080p Latino – CMHDD pelicula latino, The X-Files [SEASON 4] REMUX 1080p Latino – CMHDD 1 link mega, The X-Files [SEASON 4] REMUX 1080p Latino – CMHDD 1 link google drive, The X-Files [SEASON 4] REMUX 1080p Latino – CMHDD hd 1080p latino.