×

¿Problemas para descargar con Mozilla, EDGE? Deshabilita la opción "Abrir vinculos en una pestaña nueva" tal como lo muestra ésta imagen.

The X Files I Want To Believe (2008) EXTENDED REMUX 1080p Latino – CMHDD

266 vistas

Información de The X Files I Want To Believe (2008) EXTENDED REMUX 1080p Latino – CMHDD

Datos de la película

  • Calidad: Full 1080p
  • Audio: Español Latino AC3 5.1 BLURAY - Ingles DTS 5.1 BLURAY
  • Subtitulos: Español Latino PGS
  • Resolución: 1920x1080p
  • Formato: MKV
  • Codec: H.264
  • Encoder: Dracarys
  • Mediainfo: Clic para Mostrar Datos Ver
  • Format                      : Matroska
    Format version              : Version 4
    File size                   : 17.7 GiB
    Duration                    : 1 h 48 min
    Overall bit rate mode       : Variable
    Overall bit rate            : 23.4 Mb/s
    Movie name                  : The X Files I Want To Believe (2008) EXTENDED REMUX 1080p Latino - CMHDD
    Encoded date                : UTC 2021-04-29 05:22:39
    Writing application         : mkvmerge v56.1.0 ('My Friend') 64-bit
    Writing library             : libebml v1.4.2 + libmatroska v1.6.4
    Cover                       : Yes
    Attachments                 : cover.jpg / cover.jpg

    Video
    ID                          : 1
    Format                      : AVC
    Format/Info                 : Advanced Video Codec
    Format profile              : High@L4.1
    Format settings             : CABAC / 3 Ref Frames
    Format settings, CABAC      : Yes
    Format settings, Reference  : 3 frames
    Codec ID                    : V_MPEG4/ISO/AVC
    Duration                    : 1 h 48 min
    Bit rate                    : 19.2 Mb/s
    Width                       : 1 920 pixels
    Height                      : 1 080 pixels
    Display aspect ratio        : 16:9
    Frame rate mode             : Constant
    Frame rate                  : 23.976 (23976/1000) FPS
    Original frame rate         : 23.976 (24000/1001) FPS
    Color space                 : YUV
    Chroma subsampling          : 4:2:0
    Bit depth                   : 8 bits
    Scan type                   : Progressive
    Bits/(Pixel*Frame)          : 0.386
    Stream size                 : 14.5 GiB (82%)
    Default                     : Yes
    Forced                      : No

    Audio #1
    ID                          : 2
    Format                      : DTS XLL
    Format/Info                 : Digital Theater Systems
    Commercial name             : DTS-HD Master Audio
    Codec ID                    : A_DTS
    Duration                    : 1 h 48 min
    Bit rate mode               : Variable
    Bit rate                    : 3 724 kb/s
    Channel(s)                  : 6 channels
    Channel layout              : C L R Ls Rs LFE
    Sampling rate               : 48.0 kHz
    Frame rate                  : 93.750 FPS (512 SPF)
    Bit depth                   : 24 bits
    Compression mode            : Lossless
    Delay relative to video     : 3 ms
    Stream size                 : 2.81 GiB (16%)
    Language                    : English
    Default                     : No
    Forced                      : No

    Audio #2
    ID                          : 3
    Format                      : AC-3
    Format/Info                 : Audio Coding 3
    Commercial name             : Dolby Digital
    Codec ID                    : A_AC3
    Duration                    : 1 h 48 min
    Bit rate mode               : Constant
    Bit rate                    : 448 kb/s
    Channel(s)                  : 6 channels
    Channel layout              : L R C LFE Ls Rs
    Sampling rate               : 48.0 kHz
    Frame rate                  : 31.250 FPS (1536 SPF)
    Compression mode            : Lossy
    Delay relative to video     : 14 ms
    Stream size                 : 347 MiB (2%)
    Language                    : Spanish
    Service kind                : Complete Main
    Default                     : Yes
    Forced                      : No

    Text
    ID                          : 4
    Format                      : PGS
    Muxing mode                 : zlib
    Codec ID                    : S_HDMV/PGS
    Codec ID/Info               : Picture based subtitle format used on BDs/HD-DVDs
    Duration                    : 1 h 41 min
    Bit rate                    : 26.2 kb/s
    Count of elements           : 1964
    Stream size                 : 19.0 MiB (0%)
    Language                    : Spanish
    Default                     : No
    Forced                      : No

    Menu
    00:00:00.000                : Chapter 01

  • Peso: 17.7 GiB

Sinopsis

Varias mujeres desaparecen en una población rural de Virginia. Un sacerdote que tiene «visiones» mandará a la policía a un lugar concreto, donde encontrarán una serie de fosas con cuerpos humanos congelados que parece ser un experimento médico secreto y que puede tener relación con las mujeres desaparecidas… Vuelven los agentes del FBI Mulder y Scully, protagonistas de una de las series más populares de la historia de la televisión. Dirigida por el propio creador de la serie, Chris Carter, una nueva adaptación cinematográfica que se puede ver de forma independiente, sin necesidad de estar familiarizado con la popular serie de TV.

Ficha técnica

Video trailer de la película

Enlaces de descarga

Rip de Bluray

Descargar The X Files I Want To Believe (2008) EXTENDED REMUX 1080p Latino – CMHDD


Aportes de DPeliculasHDmega la pass es:dpeliculashdmega.org Aportes de CinemaniaHD la pass es:cinemaniahdd.com

Películas relacionadas

  • El discurso del Rey (2010) 1080p Latino

    El discurso del Rey (2010) 1080p Latino

    2010
    El discurso del Rey (2010) 1080p Latino

    1h 58m 2010

    Descargar El discurso del Rey (2010) 1080p Latino. El duque de York se convirtió en rey de Gran Bretaña...

    Director: Tom Hooper

    Género: Drama

    Actores: Tony Earnshaw

  • El discurso del Rey (2010) Full HD 1080p Latino

    El discurso del Rey (2010) Full HD 1080p Latino

    2010
    El discurso del Rey (2010) Full HD 1080p Latino

    1h 58m 2010

    Descargar El discurso del Rey (2010) Full HD 1080p Latino. El duque de York se convirtió en rey de Gran...

    Director: Tom Hooper

    Género: Drama

    Actores: Tony Earnshaw

  • El discurso del Rey (2010) REMUX 1080p Latino

    El discurso del Rey (2010) REMUX 1080p Latino

    2010
    El discurso del Rey (2010) REMUX 1080p Latino

    1h 58m 2010

    Descargar El discurso del Rey (2010) REMUX 1080p Latino. El duque de York se convirtió en rey de Gran...

    Director: Tom Hooper

    Género: Drama

    Actores: Tony Earnshaw

  • 8 Mile (2002) REMUX 4K HDR Latino – CMHDD

    8 Mile (2002) REMUX 4K HDR Latino – CMHDD

    2002
    8 Mile (2002) REMUX 4K HDR Latino – CMHDD

    1h 50m 2002

    Detroit, 1995. La promesa de potencia industrial se ha transformado en un hervidero de conflictos económicos...

    Director: Michael J. Moore

    Género: Drama

    Actores: Xzibit

descargar The X Files I Want To Believe (2008) EXTENDED REMUX 1080p Latino – CMHDD Full 1080p 1080p gratis, The X Files I Want To Believe (2008) EXTENDED REMUX 1080p Latino – CMHDD Full 1080p mega 1 link, The X Files I Want To Believe (2008) EXTENDED REMUX 1080p Latino – CMHDD Full 1080p pelicula completa, descargar The X Files I Want To Believe (2008) EXTENDED REMUX 1080p Latino – CMHDD Full 1080p gratis en mega.

The X Files I Want To Believe (2008) EXTENDED REMUX 1080p Latino – CMHDD pelicula full hd, The X Files I Want To Believe (2008) EXTENDED REMUX 1080p Latino – CMHDD mega latino, The X Files I Want To Believe (2008) EXTENDED REMUX 1080p Latino – CMHDD 4k latino, The X Files I Want To Believe (2008) EXTENDED REMUX 1080p Latino – CMHDD pelicula completa, The X Files I Want To Believe (2008) EXTENDED REMUX 1080p Latino – CMHDD descargar gratis, descargar The X Files I Want To Believe (2008) EXTENDED REMUX 1080p Latino – CMHDD pelicula latino, The X Files I Want To Believe (2008) EXTENDED REMUX 1080p Latino – CMHDD 1 link mega, The X Files I Want To Believe (2008) EXTENDED REMUX 1080p Latino – CMHDD 1 link google drive, The X Files I Want To Believe (2008) EXTENDED REMUX 1080p Latino – CMHDD hd 1080p latino.
Comentarios 0