The X Files Fight the Future (1998) EXTENDED REMUX 1080p Latino – CMHDD

56 vistas
1 estrella2 estrellas3 estrellas4 estrellas5 estrellas (1 votos, promedio: 5,00 de 5)
Cargando...

Información de The X Files Fight the Future (1998) EXTENDED REMUX 1080p Latino – CMHDD

Datos de la película

  • Calidad: Full 1080p
  • Audio: Español Latino AC3 2.0 BLURAY - Ingles DTS 5.1 BLURAY
  • Subtitulos: Español Latino PGS
  • Resolución: 1920x1080p
  • Formato: MKV
  • Codec: H.264
  • Encoder: Dracarys
  • Mediainfo: Clic para Mostrar Datos Ver
  • Format                      : Matroska
    Format version              : Version 4
    File size                   : 21.1 GiB
    Duration                    : 2 h 2 min
    Overall bit rate mode       : Variable
    Overall bit rate            : 24.6 Mb/s
    Movie name                  : The X Files: Fight the Future (1998) REMUX 1080p Latino - CMHDD
    Encoded date                : UTC 2021-04-29 04:48:08
    Writing application         : mkvmerge v56.1.0 ('My Friend') 64-bit
    Writing library             : libebml v1.4.2 + libmatroska v1.6.4
    Cover                       : Yes
    Attachments                 : cover.jpg

    Video
    ID                          : 1
    Format                      : AVC
    Format/Info                 : Advanced Video Codec
    Format profile              : High@L4.1
    Format settings             : CABAC / 3 Ref Frames
    Format settings, CABAC      : Yes
    Format settings, Reference  : 3 frames
    Codec ID                    : V_MPEG4/ISO/AVC
    Duration                    : 2 h 2 min
    Bit rate                    : 20.1 Mb/s
    Width                       : 1 920 pixels
    Height                      : 1 080 pixels
    Display aspect ratio        : 16:9
    Frame rate mode             : Constant
    Frame rate                  : 23.976 (24000/1001) FPS
    Color space                 : YUV
    Chroma subsampling          : 4:2:0
    Bit depth                   : 8 bits
    Scan type                   : Progressive
    Bits/(Pixel*Frame)          : 0.405
    Stream size                 : 17.3 GiB (82%)
    Default                     : Yes
    Forced                      : No

    Audio #1
    ID                          : 2
    Format                      : DTS XLL
    Format/Info                 : Digital Theater Systems
    Commercial name             : DTS-HD Master Audio
    Codec ID                    : A_DTS
    Duration                    : 2 h 2 min
    Bit rate mode               : Variable
    Bit rate                    : 4 188 kb/s
    Channel(s)                  : 6 channels
    Channel layout              : C L R Ls Rs LFE
    Sampling rate               : 48.0 kHz
    Frame rate                  : 93.750 FPS (512 SPF)
    Bit depth                   : 24 bits
    Compression mode            : Lossless
    Delay relative to video     : 3 ms
    Stream size                 : 3.59 GiB (17%)
    Language                    : English
    Default                     : No
    Forced                      : No

    Audio #2
    ID                          : 3
    Format                      : AC-3
    Format/Info                 : Audio Coding 3
    Commercial name             : Dolby Digital
    Codec ID                    : A_AC3
    Duration                    : 2 h 2 min
    Bit rate mode               : Constant
    Bit rate                    : 224 kb/s
    Channel(s)                  : 2 channels
    Channel layout              : L R
    Sampling rate               : 48.0 kHz
    Frame rate                  : 31.250 FPS (1536 SPF)
    Compression mode            : Lossy
    Delay relative to video     : 14 ms
    Stream size                 : 197 MiB (1%)
    Language                    : Spanish
    Service kind                : Complete Main
    Default                     : Yes
    Forced                      : No

    Text #1
    ID                          : 4
    Format                      : PGS
    Muxing mode                 : zlib
    Codec ID                    : S_HDMV/PGS
    Codec ID/Info               : Picture based subtitle format used on BDs/HD-DVDs
    Duration                    : 1 h 52 min
    Bit rate                    : 39.7 kb/s
    Count of elements           : 1793
    Stream size                 : 32.0 MiB (0%)
    Language                    : Spanish
    Default                     : No
    Forced                      : No

    Text #2
    ID                          : 5
    Format                      : PGS
    Muxing mode                 : zlib
    Codec ID                    : S_HDMV/PGS
    Codec ID/Info               : Picture based subtitle format used on BDs/HD-DVDs
    Duration                    : 1 h 20 min
    Bit rate                    : 4 191 b/s
    Count of elements           : 120
    Stream size                 : 2.41 MiB (0%)
    Language                    : Spanish
    Default                     : No
    Forced                      : No

    Menu
    00:00:00.000                : Chapter 01
    00:05:47.555                : Chapter 02
    00:10:55.905                : Chapter 03
    00:21:41.425                : Chapter 04
    00:26:10.151                : Chapter 05
    00:32:36.537                : Chapter 06
    00:35:51.857                : Chapter 07
    00:45:10.374                : Chapter 08
    00:50:49.963                : Chapter 09
    00:54:55.417                : Chapter 10
    01:01:02.575                : Chapter 11
    01:07:28.878                : Chapter 12
    01:16:58.613                : Chapter 13
    01:18:44.094                : Chapter 14
    01:27:21.986                : Chapter 15
    01:37:13.786                : Chapter 16
    01:44:15.123                : Chapter 17
    01:48:00.390                : Chapter 18

  • Peso: 21.1 GiB

Sinopsis

En el norte de Texas, un joven cae en una grieta del suelo mientras juega con sus amigos. Éstos contemplan cómo es atacado por un cáncer negro que también infecta a dos bomberos que intentan rescatarlo. Mientras tanto, los agentes del FBI Fox Mulder David Duchovny) y Dana Scully (Gillian Anderson), apartados de los expedientes-x, inspeccionan un edificio federal de Dallas y entonces sucede algo completamente inesperado.

Ficha técnica

  • Titulo original: The X Files: Fight the Future
  • Fecha de lanzamiento: 13-10-1998
  • Género: Ciencia ficción, Documental
  • Puntuación: 5.0 1 votos
  • Duración:
    0h 27m

Video trailer de la película

Enlaces de descarga

Rip de Bluray

Descargar The X Files Fight the Future (1998) EXTENDED REMUX 1080p Latino – CMHDD


Aportes de DPeliculasHDmega la pass es:dpeliculashdmega.org Aportes de CinemaniaHD la pass es:cinemaniahdd.com
Guardado en : Ciencia ficción , Documental

Películas relacionadas

The X Files Fight the Future (1998) EXTENDED REMUX 1080p Latino – CMHDD pelicula full hd, The X Files Fight the Future (1998) EXTENDED REMUX 1080p Latino – CMHDD mega latino, The X Files Fight the Future (1998) EXTENDED REMUX 1080p Latino – CMHDD 4k latino, The X Files Fight the Future (1998) EXTENDED REMUX 1080p Latino – CMHDD pelicula completa, The X Files Fight the Future (1998) EXTENDED REMUX 1080p Latino – CMHDD descargar gratis, descargar The X Files Fight the Future (1998) EXTENDED REMUX 1080p Latino – CMHDD pelicula latino, The X Files Fight the Future (1998) EXTENDED REMUX 1080p Latino – CMHDD 1 link mega, The X Files Fight the Future (1998) EXTENDED REMUX 1080p Latino – CMHDD 1 link google drive, The X Files Fight the Future (1998) EXTENDED REMUX 1080p Latino – CMHDD hd 1080p latino.
Comentarios 0