×

¿Problemas para descargar con Mozilla, EDGE? Deshabilita la opción "Abrir vinculos en una pestaña nueva" tal como lo muestra ésta imagen.

The Wretched (2020) HD 1080p Latino

457 vistas

Información de The Wretched (2020) HD 1080p Latino

Datos de la película

  • Calidad: 1080p
  • Audio: Se especifica abajo de la Sinopsis
  • Subtitulos: Español Latino SRT- FORZADOS SRT
  • Resolución: 1836x804
  • Formato: MKV
  • Codec: H.264
  • Encoder: cinemaniahdd
  • Mediainfo: Clic para Mostrar Datos Ver
  • The Wretched (2020) HD 1080p Latino [CNMNHDD].mkv
    Format                      : Matroska
    Format version              : Version 4
    File size                   : 2.78 GiB
    Duration                    : 1 h 38 min
    Overall bit rate            : 4 032 kb/s
    Movie name                  : The Wretched (2020) - CinemaniaHDD.Net
    Encoded date                : UTC 2021-02-06 02:26:46
    Writing application         : mkvmerge v51.0.0 ('I Wish') 64-bit
    Writing library             : libebml v1.4.0 + libmatroska v1.6.2

    Video
    ID                          : 1
    Format                      : AVC
    Format/Info                 : Advanced Video Codec
    Format profile              : Main@L4
    Format settings             : CABAC / 5 Ref Frames
    Format settings, CABAC      : Yes
    Format settings, Reference  : 5 frames
    Codec ID                    : V_MPEG4/ISO/AVC
    Duration                    : 1 h 35 min
    Bit rate                    : 3 500 kb/s
    Width                       : 1 836 pixels
    Height                      : 804 pixels
    Display aspect ratio        : 2.25:1
    Frame rate mode             : Constant
    Frame rate                  : 23.976 (24000/1001) FPS
    Color space                 : YUV
    Chroma subsampling          : 4:2:0
    Bit depth                   : 8 bits
    Scan type                   : Progressive
    Bits/(Pixel*Frame)          : 0.099
    Stream size                 : 2.30 GiB (82%)
    Title                       : CinemaniaHDD
    Writing library             : x264 core 157 r2935 545de2f
    Encoding settings           : cabac=1 / ref=5 / deblock=1:0:0 / analyse=0x1:0x111 / me=hex / subme=8 / psy=1 / psy_rd=1.00:0.00 / mixed_ref=1 / me_range=16 / chroma_me=1 / trellis=2 / 8x8dct=0 / cqm=0 / deadzone=21,11 / fast_pskip=1 / chroma_qp_offset=-2 / threads=24 / lookahead_threads=4 / sliced_threads=0 / nr=0 / decimate=1 / interlaced=0 / bluray_compat=0 / constrained_intra=0 / bframes=3 / b_pyramid=2 / b_adapt=1 / b_bias=0 / direct=3 / weightb=1 / open_gop=0 / weightp=2 / keyint=240 / keyint_min=24 / scenecut=40 / intra_refresh=0 / rc_lookahead=50 / rc=abr / mbtree=1 / bitrate=3500 / ratetol=1.0 / qcomp=0.60 / qpmin=0 / qpmax=69 / qpstep=4 / vbv_maxrate=20000 / vbv_bufsize=25000 / nal_hrd=none / filler=0 / ip_ratio=1.40 / aq=1:1.00
    Default                     : Yes
    Forced                      : No
    Color range                 : Limited
    Color primaries             : BT.709
    Transfer characteristics    : BT.709
    Matrix coefficients         : BT.709

    Audio #1
    ID                          : 2
    Format                      : AC-3
    Format/Info                 : Audio Coding 3
    Commercial name             : Dolby Digital
    Codec ID                    : A_AC3
    Duration                    : 1 h 38 min
    Bit rate mode               : Constant
    Bit rate                    : 256 kb/s
    Channel(s)                  : 2 channels
    Channel layout              : L R
    Sampling rate               : 48.0 kHz
    Frame rate                  : 31.250 FPS (1536 SPF)
    Compression mode            : Lossy
    Delay relative to video     : -5 ms
    Stream size                 : 181 MiB (6%)
    Title                       : Español latino [CinemaniaHDD]
    Language                    : Spanish
    Service kind                : Complete Main
    Default                     : Yes
    Forced                      : No

    Audio #2
    ID                          : 3
    Format                      : AC-3
    Format/Info                 : Audio Coding 3
    Commercial name             : Dolby Digital
    Codec ID                    : A_AC3
    Duration                    : 1 h 38 min
    Bit rate mode               : Constant
    Bit rate                    : 448 kb/s
    Channel(s)                  : 6 channels
    Channel layout              : L R C LFE Ls Rs
    Sampling rate               : 48.0 kHz
    Frame rate                  : 31.250 FPS (1536 SPF)
    Compression mode            : Lossy
    Delay relative to video     : -5 ms
    Stream size                 : 317 MiB (11%)
    Title                       : Inglés  [CinemaniaHDD]
    Service kind                : Complete Main
    Default                     : No
    Forced                      : No

    Text #1
    ID                          : 4
    Format                      : UTF-8
    Codec ID                    : S_TEXT/UTF8
    Codec ID/Info               : UTF-8 Plain Text
    Duration                    : 1 h 17 min
    Bit rate                    : 0 b/s
    Count of elements           : 17
    Stream size                 : 382 Bytes (0%)
    Title                       : Forzados [CinemaniaHDD]
    Language                    : Spanish
    Default                     : Yes
    Forced                      : Yes

    Text #2
    ID                          : 5
    Format                      : UTF-8
    Codec ID                    : S_TEXT/UTF8
    Codec ID/Info               : UTF-8 Plain Text
    Duration                    : 1 h 29 min
    Bit rate                    : 29 b/s
    Count of elements           : 684
    Stream size                 : 19.5 KiB (0%)
    Title                       : Español latino [CinemaniaHDD]
    Language                    : Spanish
    Default                     : No
    Forced                      : No

    Text #3
    ID                          : 6
    Format                      : UTF-8
    Codec ID                    : S_TEXT/UTF8
    Codec ID/Info               : UTF-8 Plain Text
    Duration                    : 1 h 30 min
    Bit rate                    : 34 b/s
    Count of elements           : 867
    Stream size                 : 23.1 KiB (0%)
    Title                       : Inglés [CinemaniaHDD]
    Language                    : English
    Default                     : No
    Forced                      : No

    Menu
    00:00:00.000                : en:Chapter 01
    00:05:38.421                : en:Chapter 02
    00:14:55.811                : en:Chapter 03
    00:21:28.078                : en:Chapter 04
    00:30:23.571                : en:Chapter 05
    00:37:31.540                : en:Chapter 06
    00:45:46.326                : en:Chapter 07
    00:53:09.394                : en:Chapter 08
    01:00:42.055                : en:Chapter 09
    01:08:16.634                : en:Chapter 10
    01:19:18.128                : en:Chapter 11
    01:31:01.622                : en:Chapter 12

     

  • Peso: 2.78 GiB

Sinopsis

Ben, un adolescente amargado por el divorcio de sus padres, pasa el verano con su padre en la costa para aprender a obedecer a los adultos. Sin embargo, el chico descubre que una bruja milenaria ha poseído a la vecina y pretende matarlo para que nadie averigüe lo que está sucediendo.

Español Latino AC3 2.0 WEB-DL – I ngles AC3 5.1 BD

Ficha técnica

Video trailer de la película

Enlaces de descarga

Rip de Bluray

Descargar The Wretched (2020) HD 1080p Latino




Aportes de DPeliculasHDmega la pass es:dpeliculashdmega.org Aportes de CinemaniaHD la pass es:cinemaniahdd.com Aportes recientes:cinemaniahdd.net
Guardado en : Terror , HD 1080p

Películas relacionadas

  • Next Goal Wins (2023) 1080p Latino-CMHDD

    Next Goal Wins (2023) 1080p Latino-CMHDD

    2023
    Next Goal Wins (2023) 1080p Latino-CMHDD

    1h 44m 2023

    Descargar Next Goal Wins (2023) 1080p Latino-CMHDD. Drama deportivo que cuenta la historia del entrenador...

    Director: Zack Earl Edwards

    Género: Comedia

    Actores: William Chun

  • Squealer (2023) PCOK WEB-DL 1080p Latino

    Squealer (2023) PCOK WEB-DL 1080p Latino

    2023
    Squealer (2023) PCOK WEB-DL 1080p Latino

    1h 39m 2023

    Un policía local y una trabajadora social, siguen las pistas sobre los casos de personas desaparecidas...

    Director: Andy Armstrong

    Género: Suspenso

    Actores: Wes Chatham

  • ¡Patos! (2023) HD 1080p Latino

    ¡Patos! (2023) HD 1080p Latino

    2023
    ¡Patos! (2023) HD 1080p Latino

    1h 23m 2023

    Descargar ¡Patos! (2023) HD 1080p Latino. Después de que una familia de patos migratorios aterriza...

    Director: Guy-Laurent Homsy

    Género: Acción

    Actores: Zeno Robinson

descargar The Wretched (2020) HD 1080p Latino 1080p 1080p gratis, The Wretched (2020) HD 1080p Latino 1080p mega 1 link, The Wretched (2020) HD 1080p Latino 1080p pelicula completa, descargar The Wretched (2020) HD 1080p Latino 1080p gratis en mega.

The Wretched (2020) HD 1080p Latino pelicula full hd, The Wretched (2020) HD 1080p Latino mega latino, The Wretched (2020) HD 1080p Latino 4k latino, The Wretched (2020) HD 1080p Latino pelicula completa, The Wretched (2020) HD 1080p Latino descargar gratis, descargar The Wretched (2020) HD 1080p Latino pelicula latino, The Wretched (2020) HD 1080p Latino 1 link mega, The Wretched (2020) HD 1080p Latino 1 link google drive, The Wretched (2020) HD 1080p Latino hd 1080p latino.
Comentarios 0