×

¿Problemas para descargar con Mozilla, EDGE? Deshabilita la opción "Abrir vinculos en una pestaña nueva" tal como lo muestra ésta imagen.

Bienvenidos al Fin del Mundo (2013) 4K UHD HDR Latino

1.123 vistas

Información de Bienvenidos al Fin del Mundo (2013) 4K UHD HDR Latino

bienvenidos al fin del mundo 56697 poster

Datos de la película

  • Calidad: 4K HDR
  • Audio: Español Latino DTS 5.1 BLURAY - Ingles AC3 5.1
  • Subtitulos: Español Latino PGS - Ingles PGS
  • Resolución: 3840x1636p
  • Formato: MKV
  • Codec: HEVC
  • Encoder: CinefiloCool
  • Mediainfo: Clic para Mostrar Datos Ver
  • Una Noche En El Fin Del Mundo (2013) UHD HDR Latino-CMHDD.mkv
    Format                      : Matroska
    Format version              : Version 4
    File size                   : 18.8 GiB
    Duration                    : 1 h 49 min
    Overall bit rate            : 24.7 Mb/s
    Movie name                  : CinemaniaHDD.Net
    Encoded date                : UTC 2019-09-09 01:22:21
    Writing application         : mkvmerge v35.0.0 ('All The Love In The World') 64-bit
    Writing library             : libebml v1.3.9 + libmatroska v1.5.2
    Attachments                 : CINEMANIAHD.png

    Video
    ID                          : 1
    Format                      : HEVC
    Format/Info                 : High Efficiency Video Coding
    Commercial name             : HDR10
    Format profile              : Main 10@L5.1@High
    Codec ID                    : V_MPEGH/ISO/HEVC
    Duration                    : 1 h 49 min
    Bit rate                    : 23.3 Mb/s
    Width                       : 3 840 pixels
    Height                      : 1 636 pixels
    Display aspect ratio        : 2.35:1
    Frame rate mode             : Constant
    Frame rate                  : 23.976 (24000/1001) FPS
    Color space                 : YUV
    Chroma subsampling          : 4:2:0 (Type 2)
    Bit depth                   : 10 bits
    Bits/(Pixel*Frame)          : 0.155
    Stream size                 : 17.7 GiB (94%)
    Title                       : 2160p HDR [Bluray]
    Writing library             : x265 3.1+11-de920e0a3183:[Windows][MSVC 1922][64 bit] 10bit
    Encoding settings           : cpuid=1111039 / frame-threads=5 / numa-pools=36 / wpp / no-pmode / no-pme / no-psnr / no-ssim / log-level=2 / input-csp=1 / input-res=3840x1636 / interlace=0 / total-frames=156892 / level-idc=51 / high-tier=1 / uhd-bd=0 / ref=4 / no-allow-non-conformance / repeat-headers / annexb / aud / hrd / info / hash=0 / no-temporal-layers / no-open-gop / min-keyint=1 / keyint=24 / gop-lookahead=0 / bframes=4 / b-adapt=2 / b-pyramid / bframe-bias=0 / rc-lookahead=25 / lookahead-slices=4 / scenecut=40 / radl=0 / no-splice / no-intra-refresh / ctu=64 / min-cu-size=8 / rect / no-amp / max-tu-size=32 / tu-inter-depth=1 / tu-intra-depth=1 / limit-tu=0 / rdoq-level=2 / dynamic-rd=0.00 / no-ssim-rd / signhide / no-tskip / nr-intra=0 / nr-inter=0 / no-constrained-intra / no-strong-intra-smoothing / max-merge=3 / limit-refs=3 / limit-modes / me=3 / subme=3 / merange=57 / temporal-mvp / no-hme / weightp / no-weightb / no-analyze-src-pics / deblock=-3:-3 / no-sao / no-sao-non-deblock / rd=4 / no-early-skip / rskip / no-fast-intra / no-tskip-fast / no-cu-lossless / no-b-intra / no-splitrd-skip / rdpenalty=0 / psy-rd=2.00 / psy-rdoq=1.00 / no-rd-refine / no-lossless / cbqpoffs=0 / crqpoffs=0 / rc=crf / crf=17.0 / qcomp=0.60 / qpstep=4 / stats-write=0 / stats-read=0 / vbv-maxrate=160000 / vbv-bufsize=160000 / vbv-init=0.9 / crf-max=0.0 / crf-min=0.0 / ipratio=1.40 / pbratio=1.30 / aq-mode=2 / aq-strength=1.00 / cutree / zone-count=0 / no-strict-cbr / qg-size=32 / no-rc-grain / qpmax=69 / qpmin=0 / no-const-vbv / sar=1 / overscan=0 / videoformat=5 / range=0 / colorprim=9 / transfer=16 / colormatrix=9 / chromaloc=1 / chromaloc-top=2 / chromaloc-bottom=2 / display-window=0 / master-display=G(13250,34500)B(7500,3000)R(34000,16000)WP(15635,16450)L(10000000,50)cll=1000,184 / min-luma=0 / max-luma=1023 / log2-max-poc-lsb=8 / vui-timing-info / vui-hrd-info / slices=1 / no-opt-qp-pps / no-opt-ref-list-length-pps / no-multi-pass-opt-rps / scenecut-bias=0.05 / no-opt-cu-delta-qp / no-aq-motion / hdr / hdr-opt / no-dhdr10-opt / no-idr-recovery-sei / analysis-reuse-level=5 / scale-factor=0 / refine-intra=0 / refine-inter=0 / refine-mv=0 / refine-ctu-distortion=0 / no-limit-sao / ctu-info=0 / no-lowpass-dct / refine-analysis-type=0 / copy-pic=1 / max-ausize-factor=1.0 / no-dynamic-refine / no-single-sei / no-hevc-aq / no-svt / no-field / qp-adaptation-range=1.00
    Default                     : Yes
    Forced                      : No
    Color range                 : Limited
    Color primaries             : BT.2020
    Transfer characteristics    : PQ
    Matrix coefficients         : BT.2020 non-constant
    Mastering display color pri : Display P3
    Mastering display luminance : min: 0.0050 cd/m2, max: 1000 cd/m2
    Maximum Content Light Level : 1000 cd/m2
    Maximum Frame-Average Light : 184 cd/m2

    Audio #1
    ID                          : 2
    Format                      : DTS
    Format/Info                 : Digital Theater Systems
    Codec ID                    : A_DTS
    Duration                    : 1 h 49 min
    Bit rate mode               : Constant
    Bit rate                    : 768 kb/s
    Channel(s)                  : 6 channels
    Channel layout              : C L R Ls Rs LFE
    Sampling rate               : 48.0 kHz
    Frame rate                  : 93.750 FPS (512 SPF)
    Bit depth                   : 24 bits
    Compression mode            : Lossy
    Delay relative to video     : 709 ms
    Stream size                 : 599 MiB (3%)
    Title                       : DTS_5.1_Bluray_Esp
    Language                    : Spanish
    Default                     : Yes
    Forced                      : Yes

    Audio #2
    ID                          : 3
    Format                      : AC-3
    Format/Info                 : Audio Coding 3
    Commercial name             : Dolby Digital
    Codec ID                    : A_AC3
    Duration                    : 1 h 49 min
    Bit rate mode               : Constant
    Bit rate                    : 640 kb/s
    Channel(s)                  : 6 channels
    Channel layout              : L R C LFE Ls Rs
    Sampling rate               : 48.0 kHz
    Frame rate                  : 31.250 FPS (1536 SPF)
    Bit depth                   : 16 bits
    Compression mode            : Lossy
    Stream size                 : 499 MiB (3%)
    Title                       : AC3_5.1_Bluray_Eng
    Language                    : English
    Service kind                : Complete Main
    Default                     : No
    Forced                      : No

    Text #1
    ID                          : 4
    Format                      : PGS
    Muxing mode                 : zlib
    Codec ID                    : S_HDMV/PGS
    Codec ID/Info               : Picture based subtitle format used on BDs/HD-DVDs
    Duration                    : 1 h 35 min
    Bit rate                    : 596 b/s
    Count of elements           : 44
    Stream size                 : 418 KiB (0%)
    Title                       : Sub_Forzados [PGS]
    Language                    : Spanish
    Default                     : Yes
    Forced                      : Yes

    Text #2
    ID                          : 5
    Format                      : PGS
    Muxing mode                 : zlib
    Codec ID                    : S_HDMV/PGS
    Codec ID/Info               : Picture based subtitle format used on BDs/HD-DVDs
    Duration                    : 1 h 42 min
    Bit rate                    : 49.7 kb/s
    Count of elements           : 3434
    Stream size                 : 36.6 MiB (0%)
    Title                       : Sub_Esp [PGS]
    Language                    : Spanish
    Default                     : No
    Forced                      : No

    Text #3
    ID                          : 6
    Format                      : PGS
    Muxing mode                 : zlib
    Codec ID                    : S_HDMV/PGS
    Codec ID/Info               : Picture based subtitle format used on BDs/HD-DVDs
    Duration                    : 1 h 43 min
    Bit rate                    : 56.9 kb/s
    Count of elements           : 3726
    Stream size                 : 42.1 MiB (0%)
    Title                       : Sub_Eng [PGS]
    Language                    : English
    Default                     : No
    Forced                      : No

    Text #4
    ID                          : 7
    Format                      : UTF-8
    Codec ID                    : S_TEXT/UTF8
    Codec ID/Info               : UTF-8 Plain Text
    Duration                    : 1 h 35 min
    Bit rate                    : 0 b/s
    Count of elements           : 22
    Stream size                 : 660 Bytes (0%)
    Title                       : Sub_Forzados
    Language                    : Spanish
    Default                     : No
    Forced                      : No

    Text #5
    ID                          : 8
    Format                      : UTF-8
    Codec ID                    : S_TEXT/UTF8
    Codec ID/Info               : UTF-8 Plain Text
    Duration                    : 1 h 42 min
    Bit rate                    : 82 b/s
    Count of elements           : 1716
    Stream size                 : 61.9 KiB (0%)
    Title                       : Sub_Esp
    Language                    : Spanish
    Default                     : No
    Forced                      : No

    Menu
    00:00:00.000                : en:Chapter 01
    00:05:38.964                : en:Chapter 02
    00:10:33.675                : en:Chapter 03
    00:15:35.434                : en:Chapter 04
    00:19:57.363                : en:Chapter 05
    00:25:24.648                : en:Chapter 06
    00:30:07.848                : en:Chapter 07
    00:36:10.418                : en:Chapter 08
    00:42:40.933                : en:Chapter 09
    00:46:17.900                : en:Chapter 10
    00:50:20.684                : en:Chapter 11
    00:57:21.396                : en:Chapter 12
    01:02:29.871                : en:Chapter 13
    01:06:31.404                : en:Chapter 14
    01:12:17.792                : en:Chapter 15
    01:18:37.671                : en:Chapter 16
    01:23:51.860                : en:Chapter 17
    01:26:46.451                : en:Chapter 18
    01:35:17.420                : en:Chapter 19
    01:42:20.885                : en:Chapter 20

  • Peso: 18.8 GiB

Sinopsis

Descargar Bienvenidos al Fin del Mundo (2013) 4K UHD HDR Latino. Cinco amigos de la infancia se reúnen después de 20 años porque uno de ellos está empeñado en volver a probar suerte en un maratón alcohólico que nunca pudieron llegar a completar. Gary King, un cuarentón que todavía no ha conseguido superar la adolescencia, convence a sus cuatro reacios amigos y los arrastra a su pueblo natal en un desesperado intento por llegar al famoso pub “The World’s End”. Pero mientras intentan reconciliar el presente con el pasado, empiezan a darse cuenta de que la auténtica lucha debe librarse por el futuro, y no solo el suyo, sino el de toda la humanidad. Llegar al pub “The World’s End” es ahora el último de sus problemas.

Ficha técnica

Video trailer de la película

Enlaces de descarga

Rip de Bluray

Descargar Bienvenidos al Fin del Mundo (2013) 4K UHD HDR Latino




Aportes de DPeliculasHDmega la pass es:dpeliculashdmega.org Aportes de CinemaniaHD la pass es:cinemaniahdd.com

Películas relacionadas

descargar Bienvenidos al Fin del Mundo (2013) 4K UHD HDR Latino 4K HDR 1080p gratis, Bienvenidos al Fin del Mundo (2013) 4K UHD HDR Latino 4K HDR mega 1 link, Bienvenidos al Fin del Mundo (2013) 4K UHD HDR Latino 4K HDR pelicula completa, descargar Bienvenidos al Fin del Mundo (2013) 4K UHD HDR Latino 4K HDR gratis en mega.

Bienvenidos al Fin del Mundo (2013) 4K UHD HDR Latino pelicula full hd, Bienvenidos al Fin del Mundo (2013) 4K UHD HDR Latino mega latino, Bienvenidos al Fin del Mundo (2013) 4K UHD HDR Latino 4k latino, Bienvenidos al Fin del Mundo (2013) 4K UHD HDR Latino pelicula completa, Bienvenidos al Fin del Mundo (2013) 4K UHD HDR Latino descargar gratis, descargar Bienvenidos al Fin del Mundo (2013) 4K UHD HDR Latino pelicula latino, Bienvenidos al Fin del Mundo (2013) 4K UHD HDR Latino 1 link mega, Bienvenidos al Fin del Mundo (2013) 4K UHD HDR Latino 1 link google drive, Bienvenidos al Fin del Mundo (2013) 4K UHD HDR Latino hd 1080p latino.
Comentarios 0