×

¿Problemas para descargar con Mozilla, EDGE? Deshabilita la opción "Abrir vinculos en una pestaña nueva" tal como lo muestra ésta imagen.

James Bond: El Mundo No Basta (1999) REMUX 1080p Latino

421 vistas

Información de James Bond: El Mundo No Basta (1999) REMUX 1080p Latino

Datos de la película

  • Calidad: Full 1080p
  • Audio: Español Latino AC3 5.1 BLURAY - Ingles DTS 5.1 BLURAY
  • Subtitulos: Español Latino PGS - Ingles PGS
  • Resolución: 1920x1080p
  • Formato: MKV
  • Codec: H.264
  • Encoder: CinefiloCool
  • Mediainfo: Clic para Mostrar Datos Ver
  • El Mundo No Basta (1999) REMUX 1080p Latino-CMHDD.mkv
    Format                      : Matroska
    Format version              : Version 4
    File size                   : 25.0 GiB
    Duration                    : 2 h 8 min
    Overall bit rate mode       : Variable
    Overall bit rate            : 27.9 Mb/s
    Movie name                  : The World Is Not Enough (1999) CinemaniaHDD.Net
    Encoded date                : UTC 2020-06-13 04:08:52
    Writing application         : mkvmerge v46.0.0 ('No Deeper Escape') 64-bit
    Writing library             : libebml v1.3.10 + libmatroska v1.5.2
    Attachments                 : CINEMANIAHD.png

    Video
    ID                          : 1
    Format                      : AVC
    Format/Info                 : Advanced Video Codec
    Format profile              : High@L4.1
    Format settings             : CABAC / 4 Ref Frames
    Format settings, CABAC      : Yes
    Format settings, Reference  : 4 frames
    Codec ID                    : V_MPEG4/ISO/AVC
    Duration                    : 2 h 8 min
    Bit rate mode               : Variable
    Bit rate                    : 25.0 Mb/s
    Maximum bit rate            : 37.0 Mb/s
    Width                       : 1 920 pixels
    Height                      : 1 080 pixels
    Display aspect ratio        : 16:9
    Frame rate mode             : Constant
    Frame rate                  : 23.976 (24000/1001) FPS
    Color space                 : YUV
    Chroma subsampling          : 4:2:0
    Bit depth                   : 8 bits
    Scan type                   : Progressive
    Bits/(Pixel*Frame)          : 0.504
    Stream size                 : 22.5 GiB (90%)
    Title                       : REMUX 1080p [CinemaniaHDD]
    Default                     : Yes
    Forced                      : No
    Color range                 : Limited
    Color primaries             : BT.709
    Transfer characteristics    : BT.709
    Matrix coefficients         : BT.709

    Audio #1
    ID                          : 2
    Format                      : AC-3
    Format/Info                 : Audio Coding 3
    Commercial name             : Dolby Digital
    Codec ID                    : A_AC3
    Duration                    : 2 h 8 min
    Bit rate mode               : Constant
    Bit rate                    : 448 kb/s
    Channel(s)                  : 6 channels
    Channel layout              : L R C LFE Ls Rs
    Sampling rate               : 48.0 kHz
    Frame rate                  : 31.250 FPS (1536 SPF)
    Compression mode            : Lossy
    Stream size                 : 411 MiB (2%)
    Title                       : Español Latino [CinemaniaHDD]
    Language                    : Spanish
    Service kind                : Complete Main
    Default                     : Yes
    Forced                      : No

    Audio #2
    ID                          : 3
    Format                      : DTS XLL
    Format/Info                 : Digital Theater Systems
    Commercial name             : DTS-HD Master Audio
    Codec ID                    : A_DTS
    Duration                    : 2 h 8 min
    Bit rate mode               : Variable
    Bit rate                    : 2 425 kb/s
    Channel(s)                  : 6 channels
    Channel layout              : C L R Ls Rs LFE
    Sampling rate               : 48.0 kHz
    Frame rate                  : 93.750 FPS (512 SPF)
    Bit depth                   : 24 bits
    Compression mode            : Lossless
    Stream size                 : 2.17 GiB (9%)
    Title                       : Ingles [CinemaniaHDD]
    Language                    : English
    Default                     : No
    Forced                      : No

    Text #1
    ID                          : 4
    Format                      : PGS
    Muxing mode                 : zlib
    Codec ID                    : S_HDMV/PGS
    Codec ID/Info               : Picture based subtitle format used on BDs/HD-DVDs
    Duration                    : 2 h 3 min
    Bit rate                    : 23.0 kb/s
    Count of elements           : 1982
    Stream size                 : 20.3 MiB (0%)
    Title                       : Español-PGS [CinemaniaHDD]
    Language                    : Spanish
    Default                     : No
    Forced                      : No

    Text #2
    ID                          : 5
    Format                      : PGS
    Muxing mode                 : zlib
    Codec ID                    : S_HDMV/PGS
    Codec ID/Info               : Picture based subtitle format used on BDs/HD-DVDs
    Duration                    : 2 h 3 min
    Bit rate                    : 27.4 kb/s
    Count of elements           : 2430
    Stream size                 : 24.2 MiB (0%)
    Title                       : Ingles-PGS [CinemaniaHDD]
    Language                    : English
    Default                     : No
    Forced                      : No

    Text #3
    ID                          : 6
    Format                      : UTF-8
    Codec ID                    : S_TEXT/UTF8
    Codec ID/Info               : UTF-8 Plain Text
    Duration                    : 2 h 3 min
    Bit rate                    : 0 b/s
    Count of elements           : 11
    Stream size                 : 230 Bytes (0%)
    Title                       : Forzados-SRT [CinemaniaHDD]
    Language                    : Spanish
    Default                     : Yes
    Forced                      : No

    Text #4
    ID                          : 7
    Format                      : UTF-8
    Codec ID                    : S_TEXT/UTF8
    Codec ID/Info               : UTF-8 Plain Text
    Duration                    : 2 h 3 min
    Bit rate                    : 39 b/s
    Count of elements           : 1092
    Stream size                 : 35.9 KiB (0%)
    Title                       : Español-SRT [CinemaniaHDD]
    Language                    : Spanish
    Default                     : No
    Forced                      : No

    Menu
    00:00:00.000                : en:Logos / Slain in Spain
    00:04:32.063                : en:Exploding Currency
    00:07:27.781                : en:Blazing Boat Chase
    00:14:17.356                : en:Title / Opening Credits
    00:17:07.026                : en:Playing Doctor
    00:20:02.910                : en:Q Bids Farewell
    00:22:54.164                : en:A Terrorist's Message
    00:26:13.989                : en:A Bullet in the Brain
    00:28:33.211                : en:Bond Meets Elektra
    00:33:54.074                : en:Skiing Under Fire
    00:40:18.666                : en:"Stay With Me"
    00:42:22.707                : en:"Shaken Not Stirred"
    00:48:34.286                : en:"The Devil's Breath"
    00:50:35.658                : en:First Sex Then Spying
    00:56:32.848                : en:Dr. Christmas Jones
    00:59:31.276                : en:"I'm Already Dead!"
    01:04:18.354                : en:Sealed in Explosion
    01:08:49.167                : en:"You Used Me!"
    01:12:30.555                : en:Diffusing a Pipe Bomb
    01:18:34.126                : en:A Slap in the Face
    01:20:00.129                : en:"What Do We Do Now?"
    01:21:55.786                : en:"Touch Your Destiny"
    01:25:25.037                : en:"I Feel Nothing!"
    01:27:27.784                : en:What Do You Know?"
    01:29:38.123                : en:Cutting Edge / Caviar
    01:36:26.614                : en:"They Want the Sub!"
    01:42:38.486                : en:"A Power Over Men"
    01:48:46.145                : en:"Call Him Off!"
    01:50:30.916                : en:Diving for the Girl
    01:55:55.949                : en:Stopping a Madman
    02:02:34.347                : en:"Christmas in Turkey"
    02:04:15.907                : en:End Credits

  • Peso: 25.0 GiB

Sinopsis

Descargar James Bond: El Mundo No Basta (1999) REMUX 1080p Latino. Tras la muerte del magnate británico del petróleo Sir Robert King en un atentado en el cuartel general del MI6, su hija Elektra hereda su billonaria fortuna en yacimientos petrolíferos en el mar Caspio. El agente 007, sintiéndose culpable de la muerte de su padre, se convierte en su guardaespaldas. Su fortuna atraerá la atención de la prensa internacional y también de su asesino, Renard, un hombre con una bala alojada en el cerebro que le impide sentir dolor físico y cuya única obsesión es la venganza.

Ficha técnica

Video trailer de la película

Enlaces de descarga

Rip de Bluray

Descargar James Bond: El Mundo No Basta (1999) REMUX 1080p Latino




Aportes de DPeliculasHDmega la pass es:dpeliculashdmega.org Aportes de CinemaniaHD la pass es:cinemaniahdd.com
Guardado en : Acción , Aventura , Remux , Suspenso

Películas relacionadas

descargar James Bond: El Mundo No Basta (1999) REMUX 1080p Latino Full 1080p 1080p gratis, James Bond: El Mundo No Basta (1999) REMUX 1080p Latino Full 1080p mega 1 link, James Bond: El Mundo No Basta (1999) REMUX 1080p Latino Full 1080p pelicula completa, descargar James Bond: El Mundo No Basta (1999) REMUX 1080p Latino Full 1080p gratis en mega.

James Bond: El Mundo No Basta (1999) REMUX 1080p Latino pelicula full hd, James Bond: El Mundo No Basta (1999) REMUX 1080p Latino mega latino, James Bond: El Mundo No Basta (1999) REMUX 1080p Latino 4k latino, James Bond: El Mundo No Basta (1999) REMUX 1080p Latino pelicula completa, James Bond: El Mundo No Basta (1999) REMUX 1080p Latino descargar gratis, descargar James Bond: El Mundo No Basta (1999) REMUX 1080p Latino pelicula latino, James Bond: El Mundo No Basta (1999) REMUX 1080p Latino 1 link mega, James Bond: El Mundo No Basta (1999) REMUX 1080p Latino 1 link google drive, James Bond: El Mundo No Basta (1999) REMUX 1080p Latino hd 1080p latino.
Comentarios 1
  • ocpgaiden - 15 junio, 2020

    Gracias por 007 el mundo no basta bdremux, saludos