×

¿Problemas para descargar con Mozilla, EDGE? Deshabilita la opción "Abrir vinculos en una pestaña nueva" tal como lo muestra ésta imagen.

James Bond: El Mundo No Basta (1999) Full HD 1080p Latino

1.358 vistas

Información de James Bond: El Mundo No Basta (1999) Full HD 1080p Latino

Datos de la película

  • Calidad: Full 1080p
  • Audio: Español Latino AC3 5.1 BLURAY - Ingles DTS 5.1 BLURAY
  • Subtitulos: Español Latino PGS - Ingles PGS
  • Resolución: 1920x1080p
  • Formato: MKV
  • Codec: H.264
  • Encoder: Dracarys
  • Mediainfo: Clic para Mostrar Datos Ver
  • El Mundo No Basta (1999) Full HD 1080p Latino-CMHDD.mkv
    Format                      : Matroska
    Format version              : Version 4
    File size                   : 10.1 GiB
    Duration                    : 2 h 8 min
    Overall bit rate            : 11.3 Mb/s
    Movie name                  : The World Is Not Enough (1999) CinemaniaHDD.Net
    Encoded date                : UTC 2020-06-13 03:57:37
    Writing application         : mkvmerge v46.0.0 ('No Deeper Escape') 64-bit
    Writing library             : libebml v1.3.10 + libmatroska v1.5.2
    Attachments                 : CINEMANIAHD.png

    Video
    ID                          : 1
    Format                      : AVC
    Format/Info                 : Advanced Video Codec
    Format profile              : High@L4.1
    Format settings             : CABAC / 4 Ref Frames
    Format settings, CABAC      : Yes
    Format settings, Reference  : 4 frames
    Codec ID                    : V_MPEG4/ISO/AVC
    Duration                    : 2 h 8 min
    Bit rate                    : 9 318 kb/s
    Width                       : 1 920 pixels
    Height                      : 1 080 pixels
    Display aspect ratio        : 16:9
    Frame rate mode             : Constant
    Frame rate                  : 23.976 (24000/1001) FPS
    Color space                 : YUV
    Chroma subsampling          : 4:2:0
    Bit depth                   : 8 bits
    Scan type                   : Progressive
    Bits/(Pixel*Frame)          : 0.187
    Stream size                 : 8.35 GiB (83%)
    Title                       : Full HD1080p [CinemaniaHDD]
    Writing library             : x264 core 148 r2708 86b7198
    Encoding settings           : cabac=1 / ref=4 / deblock=1:0:0 / analyse=0x3:0x133 / me=esa / subme=10 / psy=1 / psy_rd=1.00:0.00 / mixed_ref=1 / me_range=24 / chroma_me=1 / trellis=2 / 8x8dct=1 / cqm=0 / deadzone=21,11 / fast_pskip=1 / chroma_qp_offset=-2 / threads=34 / lookahead_threads=5 / sliced_threads=0 / nr=0 / decimate=1 / interlaced=0 / bluray_compat=0 / constrained_intra=0 / bframes=8 / b_pyramid=2 / b_adapt=2 / b_bias=0 / direct=3 / weightb=1 / open_gop=0 / weightp=2 / keyint=240 / keyint_min=24 / scenecut=40 / intra_refresh=0 / rc_lookahead=60 / rc=crf / mbtree=1 / crf=20.0 / qcomp=0.60 / qpmin=0 / qpmax=69 / qpstep=4 / vbv_maxrate=62500 / vbv_bufsize=78125 / crf_max=0.0 / nal_hrd=none / filler=0 / ip_ratio=1.40 / aq=1:1.00
    Language                    : English
    Default                     : Yes
    Forced                      : No
    Color range                 : Limited
    Color primaries             : BT.709
    Transfer characteristics    : BT.709
    Matrix coefficients         : BT.709

    Audio #1
    ID                          : 2
    Format                      : AC-3
    Format/Info                 : Audio Coding 3
    Commercial name             : Dolby Digital
    Codec ID                    : A_AC3
    Duration                    : 2 h 8 min
    Bit rate mode               : Constant
    Bit rate                    : 448 kb/s
    Channel(s)                  : 6 channels
    Channel layout              : L R C LFE Ls Rs
    Sampling rate               : 48.0 kHz
    Frame rate                  : 31.250 FPS (1536 SPF)
    Compression mode            : Lossy
    Stream size                 : 411 MiB (4%)
    Title                       : Español Latino [CinemaniaHDD]
    Language                    : Spanish
    Service kind                : Complete Main
    Default                     : Yes
    Forced                      : No

    Audio #2
    ID                          : 3
    Format                      : DTS
    Format/Info                 : Digital Theater Systems
    Codec ID                    : A_DTS
    Duration                    : 2 h 8 min
    Bit rate mode               : Constant
    Bit rate                    : 1 509 kb/s
    Channel(s)                  : 6 channels
    Channel layout              : C L R Ls Rs LFE
    Sampling rate               : 48.0 kHz
    Frame rate                  : 93.750 FPS (512 SPF)
    Bit depth                   : 24 bits
    Compression mode            : Lossy
    Stream size                 : 1.35 GiB (13%)
    Title                       : Ingles [CinemaniaHDD]
    Language                    : English
    Default                     : No
    Forced                      : No

    Text #1
    ID                          : 4
    Format                      : PGS
    Muxing mode                 : zlib
    Codec ID                    : S_HDMV/PGS
    Codec ID/Info               : Picture based subtitle format used on BDs/HD-DVDs
    Duration                    : 2 h 3 min
    Bit rate                    : 23.0 kb/s
    Count of elements           : 1982
    Stream size                 : 20.3 MiB (0%)
    Title                       : Español-PGS [CinemaniaHDD]
    Language                    : Spanish
    Default                     : No
    Forced                      : No

    Text #2
    ID                          : 5
    Format                      : PGS
    Muxing mode                 : zlib
    Codec ID                    : S_HDMV/PGS
    Codec ID/Info               : Picture based subtitle format used on BDs/HD-DVDs
    Duration                    : 2 h 3 min
    Bit rate                    : 27.4 kb/s
    Count of elements           : 2430
    Stream size                 : 24.2 MiB (0%)
    Title                       : Ingles-PGS [CinemaniaHDD]
    Language                    : English
    Default                     : No
    Forced                      : No

    Text #3
    ID                          : 6
    Format                      : UTF-8
    Codec ID                    : S_TEXT/UTF8
    Codec ID/Info               : UTF-8 Plain Text
    Duration                    : 2 h 3 min
    Bit rate                    : 0 b/s
    Count of elements           : 11
    Stream size                 : 230 Bytes (0%)
    Title                       : Forzados-SRT [CinemaniaHDD]
    Language                    : Spanish
    Default                     : Yes
    Forced                      : No

    Text #4
    ID                          : 7
    Format                      : UTF-8
    Codec ID                    : S_TEXT/UTF8
    Codec ID/Info               : UTF-8 Plain Text
    Duration                    : 2 h 3 min
    Bit rate                    : 39 b/s
    Count of elements           : 1092
    Stream size                 : 35.9 KiB (0%)
    Title                       : Español-SRT [CinemaniaHDD]
    Language                    : Spanish
    Default                     : No
    Forced                      : No

    Menu
    00:00:00.000                : :Chapter 1
    00:04:32.063                : :Chapter 2
    00:07:27.781                : :Chapter 3
    00:14:17.357                : :Chapter 4
    00:17:07.026                : :Chapter 5
    00:20:02.910                : :Chapter 6
    00:22:54.164                : :Chapter 7
    00:26:13.989                : :Chapter 8
    00:28:33.212                : :Chapter 9
    00:33:54.074                : :Chapter 10
    00:40:18.666                : :Chapter 11
    00:42:22.707                : :Chapter 12
    00:48:34.286                : :Chapter 13
    00:50:35.658                : :Chapter 14
    00:56:32.848                : :Chapter 15
    00:59:31.276                : :Chapter 16
    01:04:18.355                : :Chapter 17
    01:08:49.167                : :Chapter 18
    01:12:30.555                : :Chapter 19
    01:18:34.126                : :Chapter 20
    01:20:00.129                : :Chapter 21
    01:21:55.786                : :Chapter 22
    01:25:25.037                : :Chapter 23
    01:27:27.784                : :Chapter 24
    01:29:38.123                : :Chapter 25
    01:36:26.614                : :Chapter 26
    01:42:38.486                : :Chapter 27
    01:48:46.145                : :Chapter 28
    01:50:30.916                : :Chapter 29
    01:55:55.949                : :Chapter 30
    02:02:34.347                : :Chapter 31
    02:04:15.907                : :Chapter 32

  • Peso: 10.1 GiB

Sinopsis

Descargar James Bond: El Mundo No Basta (1999) Full HD 1080p Latino. Tras la muerte del magnate británico del petróleo Sir Robert King en un atentado en el cuartel general del MI6, su hija Elektra hereda su billonaria fortuna en yacimientos petrolíferos en el mar Caspio. El agente 007, sintiéndose culpable de la muerte de su padre, se convierte en su guardaespaldas. Su fortuna atraerá la atención de la prensa internacional y también de su asesino, Renard, un hombre con una bala alojada en el cerebro que le impide sentir dolor físico y cuya única obsesión es la venganza.

RESUBIDO!

Ficha técnica

Video trailer de la película

Enlaces de descarga

Rip de Bluray

Descargar James Bond: El Mundo No Basta (1999) Full HD 1080p Latino




Aportes de DPeliculasHDmega la pass es:dpeliculashdmega.org Aportes de CinemaniaHD la pass es:cinemaniahdd.com

Películas relacionadas

  • Corazón de tinta (2008) Full HD 1080p Latino

    Corazón de tinta (2008) Full HD 1080p Latino

    2008
    Corazón de tinta (2008) Full HD 1080p Latino

    1h 46m 2008

    Descargar Corazón de tinta (2008) Full HD 1080p Latino. Mortimer “Mo” Folchart y su hija de 12 años,...

    Director: Sharon Mansfield

    Género: Aventura

    Actores: Terry Cavanagh

  • Corazón de tinta (2008) REMUX 1080p Latino

    Corazón de tinta (2008) REMUX 1080p Latino

    2008
    Corazón de tinta (2008) REMUX 1080p Latino

    1h 46m 2008

    Descargar Corazón de tinta (2008) REMUX 1080p Latino. Mortimer “Mo” Folchart y su hija de 12 años,...

    Director: Sharon Mansfield

    Género: Aventura

    Actores: Tereza Srbová

  • Juego de espías (2001) 1080p Latino

    Juego de espías (2001) 1080p Latino

    2001
    Juego de espías (2001) 1080p Latino

    2h 6m 2001

    Descargar Juego de espías (2001) 1080p Latino. Corre el año 1991, y al veterano agente de la CIA Nathan...

    Director: Tony Scott

    Género: Acción

    Actores: Zsolt Zágoni

  • Juego de espías (2001) Full HD 1080p Latino

    Juego de espías (2001) Full HD 1080p Latino

    2001
    Juego de espías (2001) Full HD 1080p Latino

    2h 6m 2001

    Descargar Juego de espías (2001) Full HD 1080p Latino. Corre el año 1991, y al veterano agente de la...

    Director: Tony Scott

    Género: Acción

    Actores: Zsolt Zágoni

  • Juego de espías (2001) REMUX 1080p Latino

    Juego de espías (2001) REMUX 1080p Latino

    2001
    Juego de espías (2001) REMUX 1080p Latino

    1h 55m 2001

    Descargar Juego de espías (2001) REMUX 1080p Latino. El día de su jubilación, el veterano agente de...

    Director: Tony Scott

    Género: Acción

    Actores: Zsolt Zágoni

descargar James Bond: El Mundo No Basta (1999) Full HD 1080p Latino Full 1080p 1080p gratis, James Bond: El Mundo No Basta (1999) Full HD 1080p Latino Full 1080p mega 1 link, James Bond: El Mundo No Basta (1999) Full HD 1080p Latino Full 1080p pelicula completa, descargar James Bond: El Mundo No Basta (1999) Full HD 1080p Latino Full 1080p gratis en mega.

James Bond: El Mundo No Basta (1999) Full HD 1080p Latino pelicula full hd, James Bond: El Mundo No Basta (1999) Full HD 1080p Latino mega latino, James Bond: El Mundo No Basta (1999) Full HD 1080p Latino 4k latino, James Bond: El Mundo No Basta (1999) Full HD 1080p Latino pelicula completa, James Bond: El Mundo No Basta (1999) Full HD 1080p Latino descargar gratis, descargar James Bond: El Mundo No Basta (1999) Full HD 1080p Latino pelicula latino, James Bond: El Mundo No Basta (1999) Full HD 1080p Latino 1 link mega, James Bond: El Mundo No Basta (1999) Full HD 1080p Latino 1 link google drive, James Bond: El Mundo No Basta (1999) Full HD 1080p Latino hd 1080p latino.
Comentarios 2
  • ocpgaiden - 15 junio, 2020

    Gracias por resubirla en full hd, saludos

  • ocpgaiden - 02 agosto, 2018

    gracias por el mundo no basta, saludos