×

¿Problemas para descargar con Mozilla, EDGE? Deshabilita la opción "Abrir vinculos en una pestaña nueva" tal como lo muestra ésta imagen.

El Hombre Lobo (2010) Director’s Cut REMUX 1080p Latino

460 vistas

Información de El Hombre Lobo (2010) Director’s Cut REMUX 1080p Latino

Datos de la película

  • Calidad: Full 1080p
  • Audio: Español Latino DTS 5.1 BLURAY - Ingles DTS-HD 5.1 BLURAY
  • Subtitulos: Español Latino PGS - Ingles PGS
  • Resolución: 1920x1080p
  • Formato: MKV
  • Codec: H.264
  • Encoder: CinefiloCool
  • Mediainfo: Clic para Mostrar Datos Ver
  • El Hombre Lobo (2010) Director's Cut REMUX 1080p Latino-CMHDD.mkv
    Format                      : Matroska
    Format version              : Version 4
    File size                   : 21.1 GiB
    Duration                    : 1 h 59 min
    Overall bit rate mode       : Variable
    Overall bit rate            : 25.4 Mb/s
    Movie name                  : The Wolfman (2010) CinemaniaHDD.Net
    Encoded date                : UTC 2022-02-01 22:35:14
    Writing application         : mkvmerge v56.1.0 ('My Friend') 64-bit
    Writing library             : libebml v1.4.2 + libmatroska v1.6.4
    Attachments                 : CINEMANIAHD.png

    Video
    ID                          : 1
    Format                      : AVC
    Format/Info                 : Advanced Video Codec
    Format profile              : High@L4.1
    Format settings             : CABAC / 4 Ref Frames
    Format settings, CABAC      : Yes
    Format settings, Reference  : 4 frames
    Format settings, GOP        : M=3, N=12
    Codec ID                    : V_MPEG4/ISO/AVC
    Duration                    : 1 h 59 min
    Bit rate mode               : Variable
    Bit rate                    : 20.7 Mb/s
    Maximum bit rate            : 35.0 Mb/s
    Width                       : 1 920 pixels
    Height                      : 1 080 pixels
    Display aspect ratio        : 16:9
    Frame rate mode             : Constant
    Frame rate                  : 23.976 (24000/1001) FPS
    Color space                 : YUV
    Chroma subsampling          : 4:2:0
    Bit depth                   : 8 bits
    Scan type                   : Progressive
    Bits/(Pixel*Frame)          : 0.417
    Stream size                 : 17.3 GiB (82%)
    Title                       : REMUX HD1080p [CinemaniaHDD]
    Default                     : Yes
    Forced                      : Yes
    Color range                 : Limited
    Color primaries             : BT.709
    Transfer characteristics    : BT.709
    Matrix coefficients         : BT.709

    Audio #1
    ID                          : 2
    Format                      : DTS
    Format/Info                 : Digital Theater Systems
    Codec ID                    : A_DTS
    Duration                    : 1 h 59 min
    Bit rate mode               : Constant
    Bit rate                    : 768 kb/s
    Channel(s)                  : 6 channels
    Channel layout              : C L R Ls Rs LFE
    Sampling rate               : 48.0 kHz
    Frame rate                  : 93.750 FPS (512 SPF)
    Bit depth                   : 24 bits
    Compression mode            : Lossy
    Stream size                 : 654 MiB (3%)
    Title                       : Español Latino [CinemaniaHDD]
    Language                    : Spanish
    Default                     : Yes
    Forced                      : Yes

    Audio #2
    ID                          : 3
    Format                      : DTS XLL
    Format/Info                 : Digital Theater Systems
    Commercial name             : DTS-HD Master Audio
    Codec ID                    : A_DTS
    Duration                    : 1 h 59 min
    Bit rate mode               : Variable
    Bit rate                    : 3 883 kb/s
    Channel(s)                  : 6 channels
    Channel layout              : C L R Ls Rs LFE
    Sampling rate               : 48.0 kHz
    Frame rate                  : 93.750 FPS (512 SPF)
    Bit depth                   : 24 bits
    Compression mode            : Lossless
    Stream size                 : 3.23 GiB (15%)
    Title                       : Ingles [CinemaniaHDD]
    Language                    : English
    Default                     : No
    Forced                      : No

    Text #1
    ID                          : 4
    Format                      : PGS
    Muxing mode                 : zlib
    Codec ID                    : S_HDMV/PGS
    Codec ID/Info               : Picture based subtitle format used on BDs/HD-DVDs
    Duration                    : 1 h 58 min
    Bit rate                    : 331 b/s
    Count of elements           : 62
    Stream size                 : 287 KiB (0%)
    Title                       : Forzados-PGS [CinemaniaHDD]
    Language                    : Spanish
    Default                     : No
    Forced                      : No

    Text #2
    ID                          : 5
    Format                      : PGS
    Muxing mode                 : zlib
    Codec ID                    : S_HDMV/PGS
    Codec ID/Info               : Picture based subtitle format used on BDs/HD-DVDs
    Duration                    : 1 h 58 min
    Bit rate                    : 18.9 kb/s
    Count of elements           : 1696
    Stream size                 : 16.0 MiB (0%)
    Title                       : Español-PGS [CinemaniaHDD]
    Language                    : Spanish
    Default                     : No
    Forced                      : No

    Text #3
    ID                          : 6
    Format                      : PGS
    Muxing mode                 : zlib
    Codec ID                    : S_HDMV/PGS
    Codec ID/Info               : Picture based subtitle format used on BDs/HD-DVDs
    Duration                    : 1 h 58 min
    Bit rate                    : 25.4 kb/s
    Count of elements           : 2279
    Stream size                 : 21.5 MiB (0%)
    Title                       : Ingles-PGS [CinemaniaHDD]
    Language                    : English
    Default                     : No
    Forced                      : No

    Text #4
    ID                          : 7
    Format                      : UTF-8
    Codec ID                    : S_TEXT/UTF8
    Codec ID/Info               : UTF-8 Plain Text
    Duration                    : 1 h 28 min
    Bit rate                    : 0 b/s
    Count of elements           : 12
    Stream size                 : 384 Bytes (0%)
    Title                       : Forzados-SRT [CinemaniaHDD]
    Language                    : Spanish
    Default                     : Yes
    Forced                      : Yes

    Text #5
    ID                          : 8
    Format                      : UTF-8
    Codec ID                    : S_TEXT/UTF8
    Codec ID/Info               : UTF-8 Plain Text
    Duration                    : 1 h 51 min
    Bit rate                    : 31 b/s
    Count of elements           : 846
    Stream size                 : 25.9 KiB (0%)
    Title                       : Español-SRT [CinemaniaHDD]
    Language                    : Spanish
    Default                     : No
    Forced                      : No

    Menu
    00:00:00.000                : Chapter 01
    00:02:59.888                : Chapter 02
    00:13:34.188                : Chapter 03
    00:22:50.577                : Chapter 04
    00:27:39.282                : Chapter 05
    00:34:37.533                : Chapter 06
    00:40:50.489                : Chapter 07
    00:48:28.363                : Chapter 08
    00:52:23.557                : Chapter 09
    00:55:22.485                : Chapter 10
    01:00:49.187                : Chapter 11
    01:06:46.001                : Chapter 12
    01:09:41.010                : Chapter 13
    01:14:07.567                : Chapter 14
    01:22:06.463                : Chapter 15
    01:28:25.675                : Chapter 16
    01:34:25.910                : Chapter 17
    01:39:48.357                : Chapter 18
    01:44:55.956                : Chapter 19
    01:52:06.844                : Chapter 20

  • Peso: 21.1 GiB

Sinopsis

Descargar El Hombre Lobo (2010) Director’s Cut REMUX 1080p Latino. La infancia de Lawrence Talbot se acabó bruscamente la noche que murió su madre. Se marchó de su pueblo, Blackmoor, y tardó décadas en recuperarse e intentar olvidar. Cuando Gwen Conliffe, la prometida de su hermano, le encuentra y le ruega que la ayude a buscar a su amor, que se encuentra desaparecido, Lawrence Talbot regresa a casa. Entonces se entera de que algo brutal, salvaje, con una sed insaciable de sangre ha matado a muchos campesinos. Empieza a encajar las piezas del sangriento rompecabezas y descubre que existe una antigua maldición que convierte a las víctimas en hombres lobo las noches de luna llena. Para acabar con la carnicería y proteger a la mujer de la que se ha enamorado, Lawrence Talbot debe destruir a la temible criatura que se esconde en los bosques cercanos a Blackmoor. Este hombre sencillo con un pasado doloroso sale en busca de la bestia y descubre que él también tiene un lado primitivo que ni siquiera podía imaginar.

Disponible Solo Para VIP!!!

Ficha técnica

Video trailer de la película

Enlaces de descarga

Rip de Bluray

Descargar El Hombre Lobo (2010) Director’s Cut REMUX 1080p Latino


Aportes de DPeliculasHDmega la pass es:dpeliculashdmega.org Aportes de CinemaniaHD la pass es:cinemaniahdd.com
Guardado en : Drama , Historia , Remux , Suspenso , Terror

Películas relacionadas

descargar El Hombre Lobo (2010) Director’s Cut REMUX 1080p Latino Full 1080p 1080p gratis, El Hombre Lobo (2010) Director’s Cut REMUX 1080p Latino Full 1080p mega 1 link, El Hombre Lobo (2010) Director’s Cut REMUX 1080p Latino Full 1080p pelicula completa, descargar El Hombre Lobo (2010) Director’s Cut REMUX 1080p Latino Full 1080p gratis en mega.

El Hombre Lobo (2010) Director’s Cut REMUX 1080p Latino pelicula full hd, El Hombre Lobo (2010) Director’s Cut REMUX 1080p Latino mega latino, El Hombre Lobo (2010) Director’s Cut REMUX 1080p Latino 4k latino, El Hombre Lobo (2010) Director’s Cut REMUX 1080p Latino pelicula completa, El Hombre Lobo (2010) Director’s Cut REMUX 1080p Latino descargar gratis, descargar El Hombre Lobo (2010) Director’s Cut REMUX 1080p Latino pelicula latino, El Hombre Lobo (2010) Director’s Cut REMUX 1080p Latino 1 link mega, El Hombre Lobo (2010) Director’s Cut REMUX 1080p Latino 1 link google drive, El Hombre Lobo (2010) Director’s Cut REMUX 1080p Latino hd 1080p latino.
Comentarios 0