×

¿Problemas para descargar con Mozilla, EDGE? Deshabilita la opción "Abrir vinculos en una pestaña nueva" tal como lo muestra ésta imagen.

El Hombre Lobo (2010) Director’s Cut Full HD 1080p Latino

424 vistas

Información de El Hombre Lobo (2010) Director’s Cut Full HD 1080p Latino

Datos de la película

  • Calidad: Full 1080p
  • Audio: Español Latino DTS 5.1 BLURAY - Ingles DTS 5.1 BLURAY
  • Subtitulos: Español Latino PGS - Ingles PGS
  • Resolución: 1920x1080p
  • Formato: MKV
  • Codec: H.264
  • Encoder: CinefiloCool
  • Mediainfo: Clic para Mostrar Datos Ver
  • El Hombre Lobo (2010) Director's Cut Full HD 1080p Latino-CMHDD.mkv
    Format                      : Matroska
    Format version              : Version 4
    File size                   : 7.64 GiB
    Duration                    : 1 h 59 min
    Overall bit rate            : 9 190 kb/s
    Movie name                  : The Wolfman (2010) CinemaniaHDD.Net
    Encoded date                : UTC 2023-03-27 00:55:48
    Writing application         : mkvmerge v56.1.0 ('My Friend') 64-bit
    Writing library             : libebml v1.4.2 + libmatroska v1.6.4
    Attachments                 : CINEMANIAHD.png

    Video
    ID                          : 1
    Format                      : AVC
    Format/Info                 : Advanced Video Codec
    Format profile              : High@L4.1
    Format settings             : CABAC / 4 Ref Frames
    Format settings, CABAC      : Yes
    Format settings, Reference  : 4 frames
    Codec ID                    : V_MPEG4/ISO/AVC
    Duration                    : 1 h 59 min
    Bit rate                    : 6 896 kb/s
    Width                       : 1 920 pixels
    Height                      : 1 080 pixels
    Display aspect ratio        : 16:9
    Frame rate mode             : Constant
    Frame rate                  : 23.976 (24000/1001) FPS
    Color space                 : YUV
    Chroma subsampling          : 4:2:0
    Bit depth                   : 8 bits
    Scan type                   : Progressive
    Bits/(Pixel*Frame)          : 0.139
    Stream size                 : 5.74 GiB (75%)
    Title                       : Full HD1080p [CinemaniaHDD]
    Writing library             : x264 core 163 r3059 b684ebe0
    Encoding settings           : cabac=1 / ref=4 / deblock=1:0:0 / analyse=0x3:0x133 / me=tesa / subme=11 / psy=1 / psy_rd=1.00:0.00 / mixed_ref=1 / me_range=24 / chroma_me=1 / trellis=2 / 8x8dct=1 / cqm=0 / deadzone=21,11 / fast_pskip=0 / chroma_qp_offset=-2 / threads=24 / lookahead_threads=6 / sliced_threads=0 / nr=0 / decimate=1 / interlaced=0 / bluray_compat=0 / constrained_intra=0 / bframes=16 / b_pyramid=2 / b_adapt=2 / b_bias=0 / direct=3 / weightb=1 / open_gop=0 / weightp=2 / keyint=240 / keyint_min=24 / scenecut=40 / intra_refresh=0 / rc_lookahead=60 / rc=crf / mbtree=1 / crf=20.0 / qcomp=0.60 / qpmin=0 / qpmax=69 / qpstep=4 / vbv_maxrate=62500 / vbv_bufsize=78125 / crf_max=0.0 / nal_hrd=none / filler=0 / ip_ratio=1.40 / aq=1:1.00
    Default                     : Yes
    Forced                      : Yes
    Color range                 : Limited
    Color primaries             : BT.709
    Transfer characteristics    : BT.709
    Matrix coefficients         : BT.709

    Audio #1
    ID                          : 2
    Format                      : DTS
    Format/Info                 : Digital Theater Systems
    Codec ID                    : A_DTS
    Duration                    : 1 h 59 min
    Bit rate mode               : Constant
    Bit rate                    : 768 kb/s
    Channel(s)                  : 6 channels
    Channel layout              : C L R Ls Rs LFE
    Sampling rate               : 48.0 kHz
    Frame rate                  : 93.750 FPS (512 SPF)
    Bit depth                   : 24 bits
    Compression mode            : Lossy
    Stream size                 : 654 MiB (8%)
    Title                       : Español Latino [CinemaniaHDD]
    Language                    : Spanish
    Default                     : Yes
    Forced                      : Yes

    Audio #2
    ID                          : 3
    Format                      : DTS
    Format/Info                 : Digital Theater Systems
    Codec ID                    : A_DTS
    Duration                    : 1 h 59 min
    Bit rate mode               : Constant
    Bit rate                    : 1 509 kb/s
    Channel(s)                  : 6 channels
    Channel layout              : C L R Ls Rs LFE
    Sampling rate               : 48.0 kHz
    Frame rate                  : 93.750 FPS (512 SPF)
    Bit depth                   : 24 bits
    Compression mode            : Lossy
    Stream size                 : 1.26 GiB (16%)
    Title                       : Ingles [CinemaniaHDD]
    Language                    : English
    Default                     : No
    Forced                      : No

    Text #1
    ID                          : 4
    Format                      : PGS
    Muxing mode                 : zlib
    Codec ID                    : S_HDMV/PGS
    Codec ID/Info               : Picture based subtitle format used on BDs/HD-DVDs
    Duration                    : 1 h 58 min
    Bit rate                    : 331 b/s
    Count of elements           : 62
    Stream size                 : 287 KiB (0%)
    Title                       : Forzados-PGS [CinemaniaHDD]
    Language                    : Spanish
    Default                     : No
    Forced                      : No

    Text #2
    ID                          : 5
    Format                      : PGS
    Muxing mode                 : zlib
    Codec ID                    : S_HDMV/PGS
    Codec ID/Info               : Picture based subtitle format used on BDs/HD-DVDs
    Duration                    : 1 h 58 min
    Bit rate                    : 18.9 kb/s
    Count of elements           : 1696
    Stream size                 : 16.0 MiB (0%)
    Title                       : Español-PGS [CinemaniaHDD]
    Language                    : Spanish
    Default                     : No
    Forced                      : No

    Text #3
    ID                          : 6
    Format                      : PGS
    Muxing mode                 : zlib
    Codec ID                    : S_HDMV/PGS
    Codec ID/Info               : Picture based subtitle format used on BDs/HD-DVDs
    Duration                    : 1 h 58 min
    Bit rate                    : 25.4 kb/s
    Count of elements           : 2279
    Stream size                 : 21.5 MiB (0%)
    Title                       : Ingles-PGS [CinemaniaHDD]
    Language                    : English
    Default                     : No
    Forced                      : No

    Text #4
    ID                          : 7
    Format                      : UTF-8
    Codec ID                    : S_TEXT/UTF8
    Codec ID/Info               : UTF-8 Plain Text
    Duration                    : 1 h 28 min
    Bit rate                    : 0 b/s
    Count of elements           : 12
    Stream size                 : 384 Bytes (0%)
    Title                       : Forzados-SRT [CinemaniaHDD]
    Language                    : Spanish
    Default                     : Yes
    Forced                      : Yes

    Text #5
    ID                          : 8
    Format                      : UTF-8
    Codec ID                    : S_TEXT/UTF8
    Codec ID/Info               : UTF-8 Plain Text
    Duration                    : 1 h 51 min
    Bit rate                    : 31 b/s
    Count of elements           : 846
    Stream size                 : 25.9 KiB (0%)
    Title                       : Español-SRT [CinemaniaHDD]
    Language                    : Spanish
    Default                     : No
    Forced                      : No

    Menu
    00:00:00.000                : Chapter 01
    00:02:59.888                : Chapter 02
    00:13:34.188                : Chapter 03
    00:22:50.577                : Chapter 04
    00:27:39.282                : Chapter 05
    00:34:37.533                : Chapter 06
    00:40:50.489                : Chapter 07
    00:48:28.363                : Chapter 08
    00:52:23.557                : Chapter 09
    00:55:22.485                : Chapter 10
    01:00:49.187                : Chapter 11
    01:06:46.001                : Chapter 12
    01:09:41.010                : Chapter 13
    01:14:07.567                : Chapter 14
    01:22:06.463                : Chapter 15
    01:28:25.675                : Chapter 16
    01:34:25.910                : Chapter 17
    01:39:48.357                : Chapter 18
    01:44:55.956                : Chapter 19
    01:52:06.844                : Chapter 20

  • Peso: 7.64 GiB

Sinopsis

Descargar El Hombre Lobo (2010) Director’s Cut Full HD 1080p Latino. La infancia de Lawrence Talbot se acabó bruscamente la noche que murió su madre. Se marchó de su pueblo, Blackmoor, y tardó décadas en recuperarse e intentar olvidar. Cuando Gwen Conliffe, la prometida de su hermano, le encuentra y le ruega que la ayude a buscar a su amor, que se encuentra desaparecido, Lawrence Talbot regresa a casa. Entonces se entera de que algo brutal, salvaje, con una sed insaciable de sangre ha matado a muchos campesinos. Empieza a encajar las piezas del sangriento rompecabezas y descubre que existe una antigua maldición que convierte a las víctimas en hombres lobo las noches de luna llena. Para acabar con la carnicería y proteger a la mujer de la que se ha enamorado, Lawrence Talbot debe destruir a la temible criatura que se esconde en los bosques cercanos a Blackmoor. Este hombre sencillo con un pasado doloroso sale en busca de la bestia y descubre que él también tiene un lado primitivo que ni siquiera podía imaginar.

Ficha técnica

Video trailer de la película

Enlaces de descarga

Rip de Bluray

Descargar El Hombre Lobo (2010) Director’s Cut Full HD 1080p Latino




Aportes de DPeliculasHDmega la pass es:dpeliculashdmega.org Aportes de CinemaniaHD la pass es:cinemaniahdd.com Aportes recientes:cinemaniahdd.net

Películas relacionadas

  • La Joven y El Mar (2024) DSNP WEB-DL 1080p Latino

    La Joven y El Mar (2024) DSNP WEB-DL 1080p Latino

    2024
    La Joven y El Mar (2024) DSNP WEB-DL 1080p Latino

    1h 40m 2024

    Descargar La Joven y El Mar (2024) DSNP WEB-DL 1080p Latino. La historia de Trudy Ederle, quien en 1926...

    Director: Joachim Rønning

    Género: Drama

    Actores: Yordan Angelov

  • Vanished Into the Night (2024) NF WEB-DL 1080p Latino

    Vanished Into the Night (2024) NF WEB-DL 1080p Latino

    2024
    Vanished Into the Night (2024) NF WEB-DL 1080p Latino

    1h 33m 2024

    Descargar Vanished Into the Night (2024) NF WEB-DL 1080p Latino. Un padre inmerso en un divorcio problemático...

    Director: Renato De Maria

    Género: Drama

    Actores: Riccardo Scamarcio

  • Goyo (2024) NF WEB-DL 1080p Latino

    Goyo (2024) NF WEB-DL 1080p Latino

    2024
    Goyo (2024) NF WEB-DL 1080p Latino

    1h 47m 2024

    Descargar Goyo (2024) NF WEB-DL 1080p Latino. Goyo es un hombre con Asperger, fanático de Van Gogh,...

    Director: Pablo Discianni

    Género: Comedia

    Actores: Walter Fabian Andrade

  • Inmaculada (2024) HD 1080p Latino

    Inmaculada (2024) HD 1080p Latino

    2024
    Inmaculada (2024) HD 1080p Latino

    1h 29m 2024

    Descargar Inmaculada (2024) HD 1080p Latino. Cecilia, una mujer de fe devota, recibe una calurosa bienvenida...

    Director: Valentina Scuro

    Género: HD 1080p

    Actores: Viviane Florentine Nicolai

  • Inmaculada (2024) PLACEBO Full HD 1080p Latino

    Inmaculada (2024) PLACEBO Full HD 1080p Latino

    2024
    Inmaculada (2024) PLACEBO Full HD 1080p Latino

    1h 29m 2024

    Descargar Inmaculada (2024) PLACEBO Full HD 1080p Latino. Cecilia, una mujer de fe devota, recibe una...

    Director: Valentina Scuro

    Género: FULL 1080p Plateadas

    Actores: Viviane Florentine Nicolai

descargar El Hombre Lobo (2010) Director’s Cut Full HD 1080p Latino Full 1080p 1080p gratis, El Hombre Lobo (2010) Director’s Cut Full HD 1080p Latino Full 1080p mega 1 link, El Hombre Lobo (2010) Director’s Cut Full HD 1080p Latino Full 1080p pelicula completa, descargar El Hombre Lobo (2010) Director’s Cut Full HD 1080p Latino Full 1080p gratis en mega.

El Hombre Lobo (2010) Director’s Cut Full HD 1080p Latino pelicula full hd, El Hombre Lobo (2010) Director’s Cut Full HD 1080p Latino mega latino, El Hombre Lobo (2010) Director’s Cut Full HD 1080p Latino 4k latino, El Hombre Lobo (2010) Director’s Cut Full HD 1080p Latino pelicula completa, El Hombre Lobo (2010) Director’s Cut Full HD 1080p Latino descargar gratis, descargar El Hombre Lobo (2010) Director’s Cut Full HD 1080p Latino pelicula latino, El Hombre Lobo (2010) Director’s Cut Full HD 1080p Latino 1 link mega, El Hombre Lobo (2010) Director’s Cut Full HD 1080p Latino 1 link google drive, El Hombre Lobo (2010) Director’s Cut Full HD 1080p Latino hd 1080p latino.
Comentarios 0