×

¿Problemas para descargar con Mozilla, EDGE? Deshabilita la opción "Abrir vinculos en una pestaña nueva" tal como lo muestra ésta imagen.

El lobo de Wall Street (2013) REMUX 1080p Latino – CMHDD

1.317 vistas

Información de El lobo de Wall Street (2013) REMUX 1080p Latino – CMHDD

Datos de la película

  • Calidad: Full 1080p
  • Audio: Español Latino AC3 5.1 BLURAY - Ingles DTS 5.1 BLURAY
  • Subtitulos: Español Latino PGS - Ingles PGS
  • Resolución: 1920x1080p
  • Formato: MKV
  • Codec: H.264
  • Encoder: CinefiloCool
  • Mediainfo: Clic para Mostrar Datos Ver
  • The.Wolf.Of.Wall.Street.2023.REMUX.1080p.AVC.Latino-CC@CMHDD.mkv
    Format                      : Matroska
    Format version              : Version 4
    File size                   : 35.7 GiB
    Duration                    : 2 h 59 min
    Overall bit rate mode       : Variable
    Overall bit rate            : 28.4 Mb/s
    Movie name                  : The Wolf of Wall Street (2013) CinemaniaHDD.Net
    Encoded date                : UTC 2023-11-14 05:08:17
    Writing application         : mkvmerge v56.1.0 ('My Friend') 64-bit
    Writing library             : libebml v1.4.2 + libmatroska v1.6.4
    Attachments                 : CINEMANIAHD.png

    Video
    ID                          : 1
    Format                      : AVC
    Format/Info                 : Advanced Video Codec
    Format profile              : High@L4.1
    Format settings             : CABAC / 4 Ref Frames
    Format settings, CABAC      : Yes
    Format settings, Reference  : 4 frames
    Codec ID                    : V_MPEG4/ISO/AVC
    Duration                    : 2 h 59 min
    Bit rate mode               : Variable
    Bit rate                    : 24.3 Mb/s
    Maximum bit rate            : 39.7 Mb/s
    Width                       : 1 920 pixels
    Height                      : 1 080 pixels
    Display aspect ratio        : 16:9
    Frame rate mode             : Constant
    Frame rate                  : 23.976 (24000/1001) FPS
    Color space                 : YUV
    Chroma subsampling          : 4:2:0
    Bit depth                   : 8 bits
    Scan type                   : Progressive
    Bits/(Pixel*Frame)          : 0.490
    Stream size                 : 30.6 GiB (86%)
    Title                       : REMUX HD1080p [CinemaniaHDD]
    Default                     : Yes
    Forced                      : Yes

    Audio #1
    ID                          : 2
    Format                      : AC-3
    Format/Info                 : Audio Coding 3
    Commercial name             : Dolby Digital
    Codec ID                    : A_AC3
    Duration                    : 2 h 59 min
    Bit rate mode               : Constant
    Bit rate                    : 640 kb/s
    Channel(s)                  : 6 channels
    Channel layout              : L R C LFE Ls Rs
    Sampling rate               : 48.0 kHz
    Frame rate                  : 31.250 FPS (1536 SPF)
    Compression mode            : Lossy
    Stream size                 : 823 MiB (2%)
    Title                       : Español Latino [CinemaniaHDD]
    Language                    : Spanish
    Service kind                : Complete Main
    Default                     : Yes
    Forced                      : Yes

    Audio #2
    ID                          : 3
    Format                      : DTS XLL
    Format/Info                 : Digital Theater Systems
    Commercial name             : DTS-HD Master Audio
    Codec ID                    : A_DTS
    Duration                    : 2 h 59 min
    Bit rate mode               : Variable
    Bit rate                    : 3 400 kb/s
    Channel(s)                  : 6 channels
    Channel layout              : C L R Ls Rs LFE
    Sampling rate               : 48.0 kHz
    Frame rate                  : 93.750 FPS (512 SPF)
    Bit depth                   : 24 bits
    Compression mode            : Lossless
    Stream size                 : 4.27 GiB (12%)
    Title                       : Ingles [CinemaniaHDD]
    Language                    : English
    Default                     : No
    Forced                      : No

    Text #1
    ID                          : 4
    Format                      : PGS
    Muxing mode                 : zlib
    Codec ID                    : S_HDMV/PGS
    Codec ID/Info               : Picture based subtitle format used on BDs/HD-DVDs
    Duration                    : 2 h 56 min
    Bit rate                    : 197 b/s
    Count of elements           : 28
    Stream size                 : 255 KiB (0%)
    Title                       : Forzados-PGS [CinemaniaHDD]
    Language                    : Spanish
    Default                     : No
    Forced                      : No

    Text #2
    ID                          : 5
    Format                      : PGS
    Muxing mode                 : zlib
    Codec ID                    : S_HDMV/PGS
    Codec ID/Info               : Picture based subtitle format used on BDs/HD-DVDs
    Duration                    : 2 h 52 min
    Bit rate                    : 47.6 kb/s
    Count of elements           : 6490
    Stream size                 : 58.7 MiB (0%)
    Title                       : Español-PGS [CinemaniaHDD]
    Language                    : Spanish
    Default                     : No
    Forced                      : No

    Text #3
    ID                          : 6
    Format                      : PGS
    Muxing mode                 : zlib
    Codec ID                    : S_HDMV/PGS
    Codec ID/Info               : Picture based subtitle format used on BDs/HD-DVDs
    Duration                    : 2 h 52 min
    Bit rate                    : 63.3 kb/s
    Count of elements           : 7460
    Stream size                 : 77.9 MiB (0%)
    Title                       : Ingles [CinemaniaHDD]
    Language                    : English
    Default                     : No
    Forced                      : No

    Text #4
    ID                          : 7
    Format                      : UTF-8
    Codec ID                    : S_TEXT/UTF8
    Codec ID/Info               : UTF-8 Plain Text
    Duration                    : 2 h 49 min
    Bit rate                    : 0 b/s
    Count of elements           : 9
    Stream size                 : 218 Bytes (0%)
    Title                       : Forzados-SRT [CinemaniaHDD]
    Language                    : Spanish
    Default                     : Yes
    Forced                      : Yes

    Text #5
    ID                          : 8
    Format                      : UTF-8
    Codec ID                    : S_TEXT/UTF8
    Codec ID/Info               : UTF-8 Plain Text
    Duration                    : 2 h 52 min
    Bit rate                    : 79 b/s
    Count of elements           : 3245
    Stream size                 : 101 KiB (0%)
    Title                       : Español-SRT [CinemaniaHDD]
    Language                    : Spanish
    Default                     : No
    Forced                      : No

    Menu
    00:00:00.000                : Chapter 01
    00:07:55.933                : Chapter 02
    00:14:17.857                : Chapter 03
    00:21:31.415                : Chapter 04
    00:32:08.092                : Chapter 05
    00:40:14.495                : Chapter 06
    00:48:33.577                : Chapter 07
    00:55:21.443                : Chapter 08
    01:01:56.045                : Chapter 09
    01:07:00.474                : Chapter 10
    01:11:28.909                : Chapter 11
    01:19:49.868                : Chapter 12
    01:29:06.883                : Chapter 13
    01:37:47.403                : Chapter 14
    01:45:11.930                : Chapter 15
    01:54:39.998                : Chapter 16
    02:03:20.184                : Chapter 17
    02:07:28.015                : Chapter 18
    02:17:12.849                : Chapter 19
    02:25:25.466                : Chapter 20
    02:32:08.619                : Chapter 21
    02:36:38.722                : Chapter 22
    02:44:19.266                : Chapter 23
    02:53:04.290                : Chapter 24

  • Peso: 35.7 GiB

Sinopsis

Descargar El lobo de Wall Street (2013) REMUX 1080p Latino – CMHDD. En el apogeo del flujo de efectivo libre de la década de 1980, el corredor de bolsa Jordan Belfort se transforma de un recién llegado a Wall Street a un vaquero corrupto y poco ético de OPI. Llena de corrupción y codicia, la compañía de Jordan comienza a dispararse, justo cuando la SEC y el FBI se están acercando a su familia y su imperio.

RESUBIDA!!!

Ficha técnica

Video trailer de la película

Enlaces de descarga

Rip de Bluray

Descargar El lobo de Wall Street (2013) REMUX 1080p Latino – CMHDD


Aportes de DPeliculasHDmega la pass es:dpeliculashdmega.org Aportes de CinemaniaHD la pass es:cinemaniahdd.com Aportes recientes:cinemaniahdd.net
Guardado en : Comedia , Crimen , Drama , Remux

Películas relacionadas

descargar El lobo de Wall Street (2013) REMUX 1080p Latino – CMHDD Full 1080p 1080p gratis, El lobo de Wall Street (2013) REMUX 1080p Latino – CMHDD Full 1080p mega 1 link, El lobo de Wall Street (2013) REMUX 1080p Latino – CMHDD Full 1080p pelicula completa, descargar El lobo de Wall Street (2013) REMUX 1080p Latino – CMHDD Full 1080p gratis en mega.

El lobo de Wall Street (2013) REMUX 1080p Latino – CMHDD pelicula full hd, El lobo de Wall Street (2013) REMUX 1080p Latino – CMHDD mega latino, El lobo de Wall Street (2013) REMUX 1080p Latino – CMHDD 4k latino, El lobo de Wall Street (2013) REMUX 1080p Latino – CMHDD pelicula completa, El lobo de Wall Street (2013) REMUX 1080p Latino – CMHDD descargar gratis, descargar El lobo de Wall Street (2013) REMUX 1080p Latino – CMHDD pelicula latino, El lobo de Wall Street (2013) REMUX 1080p Latino – CMHDD 1 link mega, El lobo de Wall Street (2013) REMUX 1080p Latino – CMHDD 1 link google drive, El lobo de Wall Street (2013) REMUX 1080p Latino – CMHDD hd 1080p latino.
Comentarios 0