×

¿Problemas para descargar con Mozilla, EDGE? Deshabilita la opción "Abrir vinculos en una pestaña nueva" tal como lo muestra ésta imagen.

El lobo de Wall Street (2013) Full HD 1080p Latino – CMHDD

1.251 vistas

Información de El lobo de Wall Street (2013) Full HD 1080p Latino – CMHDD

Datos de la película

  • Calidad: Full 1080p
  • Audio: Español Latino AC3 5.1 BLURAY - Ingles DTS 5.1 BLURAY
  • Subtitulos: Español Latino PGS - Ingles PGS
  • Resolución: 1920x1080p
  • Formato: MKV
  • Codec: H.264
  • Encoder: CinefiloCool
  • Mediainfo: Clic para Mostrar Datos Ver
  • The.Wolf.Of.Wall.Street.2013.Bluray.FullHD.1080p.x264.Latino-CC@CMHDD.mkv
    Format                      : Matroska
    Format version              : Version 4
    File size                   : 9.93 GiB
    Duration                    : 2 h 59 min
    Overall bit rate            : 7 903 kb/s
    Movie name                  : The Wolf Of Wall Street (2023) CinemaniaHDD.Net
    Encoded date                : UTC 2023-11-14 05:36:06
    Writing application         : mkvmerge v56.1.0 ('My Friend') 64-bit
    Writing library             : libebml v1.4.2 + libmatroska v1.6.4
    Attachments                 : CINEMANIAHD.png

    Video
    ID                          : 1
    Format                      : AVC
    Format/Info                 : Advanced Video Codec
    Format profile              : High@L4.1
    Format settings             : CABAC / 4 Ref Frames
    Format settings, CABAC      : Yes
    Format settings, Reference  : 4 frames
    Codec ID                    : V_MPEG4/ISO/AVC
    Duration                    : 2 h 59 min
    Bit rate                    : 5 715 kb/s
    Width                       : 1 920 pixels
    Height                      : 1 080 pixels
    Display aspect ratio        : 16:9
    Frame rate mode             : Constant
    Frame rate                  : 23.976 (24000/1001) FPS
    Color space                 : YUV
    Chroma subsampling          : 4:2:0
    Bit depth                   : 8 bits
    Scan type                   : Progressive
    Bits/(Pixel*Frame)          : 0.115
    Stream size                 : 7.18 GiB (72%)
    Title                       : Full HD1080p [CinemaniaHDD]
    Writing library             : x264 core 163 r3059 b684ebe0
    Encoding settings           : cabac=1 / ref=4 / deblock=1:0:0 / analyse=0x3:0x133 / me=tesa / subme=11 / psy=1 / psy_rd=1.00:0.00 / mixed_ref=1 / me_range=24 / chroma_me=1 / trellis=2 / 8x8dct=1 / cqm=0 / deadzone=21,11 / fast_pskip=0 / chroma_qp_offset=-2 / threads=24 / lookahead_threads=6 / sliced_threads=0 / nr=0 / decimate=1 / interlaced=0 / bluray_compat=0 / constrained_intra=0 / bframes=16 / b_pyramid=2 / b_adapt=2 / b_bias=0 / direct=3 / weightb=1 / open_gop=0 / weightp=2 / keyint=240 / keyint_min=24 / scenecut=40 / intra_refresh=0 / rc_lookahead=60 / rc=crf / mbtree=1 / crf=20.0 / qcomp=0.60 / qpmin=0 / qpmax=69 / qpstep=4 / vbv_maxrate=62500 / vbv_bufsize=78125 / crf_max=0.0 / nal_hrd=none / filler=0 / ip_ratio=1.40 / aq=1:1.00
    Default                     : Yes
    Forced                      : Yes
    Color range                 : Limited
    Color primaries             : BT.709
    Transfer characteristics    : BT.709
    Matrix coefficients         : BT.709

    Audio #1
    ID                          : 2
    Format                      : AC-3
    Format/Info                 : Audio Coding 3
    Commercial name             : Dolby Digital
    Codec ID                    : A_AC3
    Duration                    : 2 h 59 min
    Bit rate mode               : Constant
    Bit rate                    : 640 kb/s
    Channel(s)                  : 6 channels
    Channel layout              : L R C LFE Ls Rs
    Sampling rate               : 48.0 kHz
    Frame rate                  : 31.250 FPS (1536 SPF)
    Compression mode            : Lossy
    Stream size                 : 823 MiB (8%)
    Title                       : Español Latino [CinemaniaHDD]
    Language                    : Spanish
    Service kind                : Complete Main
    Default                     : Yes
    Forced                      : Yes

    Audio #2
    ID                          : 3
    Format                      : DTS
    Format/Info                 : Digital Theater Systems
    Codec ID                    : A_DTS
    Duration                    : 2 h 59 min
    Bit rate mode               : Constant
    Bit rate                    : 1 509 kb/s
    Channel(s)                  : 6 channels
    Channel layout              : C L R Ls Rs LFE
    Sampling rate               : 48.0 kHz
    Frame rate                  : 93.750 FPS (512 SPF)
    Bit depth                   : 24 bits
    Compression mode            : Lossy
    Stream size                 : 1.90 GiB (19%)
    Title                       : Ingles [CinemaniaHDD]
    Language                    : English
    Default                     : No
    Forced                      : No

    Text #1
    ID                          : 4
    ID in the original source m : 4617 (0x1209)
    Format                      : PGS
    Muxing mode                 : zlib
    Codec ID                    : S_HDMV/PGS
    Codec ID/Info               : Picture based subtitle format used on BDs/HD-DVDs
    Duration                    : 2 h 56 min
    Bit rate                    : 197 b/s
    Count of elements           : 28
    Stream size                 : 255 KiB (0%)
    Title                       : Forzados-PGS [CinemaniaHDD]
    Language                    : Spanish
    Default                     : No
    Forced                      : No
    Original source medium      : Blu-ray

    Text #2
    ID                          : 5
    Format                      : PGS
    Muxing mode                 : zlib
    Codec ID                    : S_HDMV/PGS
    Codec ID/Info               : Picture based subtitle format used on BDs/HD-DVDs
    Duration                    : 2 h 52 min
    Bit rate                    : 47.6 kb/s
    Count of elements           : 6490
    Stream size                 : 58.7 MiB (1%)
    Title                       : Español-PGS [CinemaniaHDD]
    Language                    : Spanish
    Default                     : No
    Forced                      : No

    Text #3
    ID                          : 6
    ID in the original source m : 4608 (0x1200)
    Format                      : PGS
    Muxing mode                 : zlib
    Codec ID                    : S_HDMV/PGS
    Codec ID/Info               : Picture based subtitle format used on BDs/HD-DVDs
    Duration                    : 2 h 53 min
    Bit rate                    : 70.3 kb/s
    Count of elements           : 8110
    Stream size                 : 87.3 MiB (1%)
    Title                       : Ingles [CinemaniaHDD]
    Language                    : English
    Default                     : No
    Forced                      : No
    Original source medium      : Blu-ray

    Text #4
    ID                          : 7
    Format                      : UTF-8
    Codec ID                    : S_TEXT/UTF8
    Codec ID/Info               : UTF-8 Plain Text
    Duration                    : 2 h 49 min
    Bit rate                    : 0 b/s
    Count of elements           : 9
    Stream size                 : 218 Bytes (0%)
    Title                       : Forzados-SRT [CinemaniaHDD]
    Language                    : Spanish
    Default                     : Yes
    Forced                      : Yes

    Text #5
    ID                          : 8
    Format                      : UTF-8
    Codec ID                    : S_TEXT/UTF8
    Codec ID/Info               : UTF-8 Plain Text
    Duration                    : 2 h 52 min
    Bit rate                    : 79 b/s
    Count of elements           : 3245
    Stream size                 : 101 KiB (0%)
    Title                       : Español-SRT [CinemaniaHDD]
    Language                    : Spanish
    Default                     : No
    Forced                      : No

    Menu
    00:00:00.000                : Chapter 01
    00:07:58.811                : Chapter 02
    00:14:18.983                : Chapter 03
    00:21:57.649                : Chapter 04
    00:30:48.888                : Chapter 05
    00:40:46.402                : Chapter 06
    00:50:17.848                : Chapter 07
    00:59:43.413                : Chapter 08
    01:08:30.564                : Chapter 09
    01:17:25.682                : Chapter 10
    01:29:08.009                : Chapter 11
    01:37:48.529                : Chapter 12
    01:45:13.056                : Chapter 13
    01:54:41.124                : Chapter 14
    02:07:29.600                : Chapter 15
    02:17:31.993                : Chapter 16
    02:27:36.055                : Chapter 17
    02:36:39.848                : Chapter 18
    02:46:56.965                : Chapter 19
    02:53:05.416                : Chapter 20

  • Peso: 9.93 GiB

Sinopsis

Descargar El lobo de Wall Street (2013) Full HD 1080p Latino – CMHDD. En el apogeo del flujo de efectivo libre de la década de 1980, el corredor de bolsa Jordan Belfort se transforma de un recién llegado a Wall Street a un vaquero corrupto y poco ético de OPI. Llena de corrupción y codicia, la compañía de Jordan comienza a dispararse, justo cuando la SEC y el FBI se están acercando a su familia y su imperio.

RESUBIDA!!!

Ficha técnica

Video trailer de la película

Enlaces de descarga

Rip de Bluray

Descargar El lobo de Wall Street (2013) Full HD 1080p Latino – CMHDD




Aportes de DPeliculasHDmega la pass es:dpeliculashdmega.org Aportes de CinemaniaHD la pass es:cinemaniahdd.com Aportes recientes:cinemaniahdd.net

Películas relacionadas

descargar El lobo de Wall Street (2013) Full HD 1080p Latino – CMHDD Full 1080p 1080p gratis, El lobo de Wall Street (2013) Full HD 1080p Latino – CMHDD Full 1080p mega 1 link, El lobo de Wall Street (2013) Full HD 1080p Latino – CMHDD Full 1080p pelicula completa, descargar El lobo de Wall Street (2013) Full HD 1080p Latino – CMHDD Full 1080p gratis en mega.

El lobo de Wall Street (2013) Full HD 1080p Latino – CMHDD pelicula full hd, El lobo de Wall Street (2013) Full HD 1080p Latino – CMHDD mega latino, El lobo de Wall Street (2013) Full HD 1080p Latino – CMHDD 4k latino, El lobo de Wall Street (2013) Full HD 1080p Latino – CMHDD pelicula completa, El lobo de Wall Street (2013) Full HD 1080p Latino – CMHDD descargar gratis, descargar El lobo de Wall Street (2013) Full HD 1080p Latino – CMHDD pelicula latino, El lobo de Wall Street (2013) Full HD 1080p Latino – CMHDD 1 link mega, El lobo de Wall Street (2013) Full HD 1080p Latino – CMHDD 1 link google drive, El lobo de Wall Street (2013) Full HD 1080p Latino – CMHDD hd 1080p latino.
Comentarios 0