×

¿Problemas para descargar con Mozilla, EDGE? Deshabilita la opción "Abrir vinculos en una pestaña nueva" tal como lo muestra ésta imagen.

The Wilds (2022) Segunda Temporada AMZN WEB-DL 1080p Latino

393 vistas

Información de The Wilds (2022) Segunda Temporada AMZN WEB-DL 1080p Latino

Datos de la película

  • Calidad: 1080p
  • Audio: Español Latino AC3 5.1 WEB-DL - Ingles AC3 5.1 WEB-DL
  • Subtitulos: Español Latino SRT- FORZADOS SRT
  • Resolución: 1920x1080
  • Formato: MKV
  • Codec: H.264
  • Encoder: cinemaniahdd
  • Mediainfo: Clic para Mostrar Datos Ver
  • The Wilds T02E01 AMZN WEB-DL 1080p Latino [CNMNHDD].mkv
    Format                      : Matroska
    Format version              : Version 4
    File size                   : 4.32 GiB
    Duration                    : 56 min 49 s
    Overall bit rate            : 10.9 Mb/s
    Movie name                  : The Wilds S02E01 - Day 30  &  1 [1080p] [CBR] - CinemaniaHDD.Net
    Encoded date                : UTC 2022-05-06 00:25:00
    Writing application         : mkvmerge v56.1.0 ('My Friend') 64-bit
    Writing library             : libebml v1.4.2 + libmatroska v1.6.4

    Video
    ID                          : 1
    Format                      : AVC
    Format/Info                 : Advanced Video Codec
    Format profile              : High@L4
    Format settings             : CABAC / 4 Ref Frames
    Format settings, CABAC      : Yes
    Format settings, Reference  : 4 frames
    Codec ID                    : V_MPEG4/ISO/AVC
    Duration                    : 56 min 48 s
    Bit rate mode               : Constant
    Bit rate                    : 8 966 kb/s
    Nominal bit rate            : 10 000 kb/s
    Width                       : 1 920 pixels
    Height                      : 1 080 pixels
    Display aspect ratio        : 16:9
    Frame rate mode             : Constant
    Frame rate                  : 23.976 (24000/1001) FPS
    Color space                 : YUV
    Chroma subsampling          : 4:2:0
    Bit depth                   : 8 bits
    Scan type                   : Progressive
    Bits/(Pixel*Frame)          : 0.180
    Stream size                 : 3.56 GiB (82%)
    Title                       : CinemaniaHDD
    Default                     : Yes
    Forced                      : No
    Color range                 : Limited
    Color primaries             : BT.709
    Transfer characteristics    : BT.709
    Matrix coefficients         : BT.709

    Audio #1
    ID                          : 2
    Format                      : AC-3
    Format/Info                 : Audio Coding 3
    Commercial name             : Dolby Digital
    Codec ID                    : A_AC3
    Duration                    : 56 min 49 s
    Bit rate mode               : Constant
    Bit rate                    : 640 kb/s
    Channel(s)                  : 6 channels
    Channel layout              : L R C LFE Ls Rs
    Sampling rate               : 48.0 kHz
    Frame rate                  : 31.250 FPS (1536 SPF)
    Compression mode            : Lossy
    Stream size                 : 260 MiB (6%)
    Title                       : Español latino [CinemaniaHDD]
    Language                    : Spanish
    Service kind                : Complete Main
    Default                     : Yes
    Forced                      : No

    Audio #2
    ID                          : 3
    Format                      : E-AC-3
    Format/Info                 : Enhanced AC-3
    Commercial name             : Dolby Digital Plus
    Codec ID                    : A_EAC3
    Duration                    : 56 min 49 s
    Bit rate mode               : Constant
    Bit rate                    : 640 kb/s
    Channel(s)                  : 6 channels
    Channel layout              : L R C LFE Ls Rs
    Sampling rate               : 48.0 kHz
    Frame rate                  : 31.250 FPS (1536 SPF)
    Compression mode            : Lossy
    Stream size                 : 260 MiB (6%)
    Title                       : Español latino / E-AC3 [CinemaniaHDD]
    Language                    : Spanish
    Service kind                : Complete Main
    Default                     : No
    Forced                      : No

    Audio #3
    ID                          : 4
    Format                      : E-AC-3
    Format/Info                 : Enhanced AC-3
    Commercial name             : Dolby Digital Plus
    Codec ID                    : A_EAC3
    Duration                    : 56 min 49 s
    Bit rate mode               : Constant
    Bit rate                    : 640 kb/s
    Channel(s)                  : 6 channels
    Channel layout              : L R C LFE Ls Rs
    Sampling rate               : 48.0 kHz
    Frame rate                  : 31.250 FPS (1536 SPF)
    Compression mode            : Lossy
    Stream size                 : 260 MiB (6%)
    Title                       : Inglés [CinemaniaHDD]
    Language                    : English
    Service kind                : Complete Main
    Default                     : No
    Forced                      : No

    Text #1
    ID                          : 5
    Format                      : UTF-8
    Codec ID                    : S_TEXT/UTF8
    Codec ID/Info               : UTF-8 Plain Text
    Duration                    : 53 min 31 s
    Bit rate                    : 0 b/s
    Count of elements           : 5
    Stream size                 : 141 Bytes (0%)
    Title                       : Forzados [CinemaniaHDD]
    Language                    : Spanish
    Default                     : No
    Forced                      : Yes

    Text #2
    ID                          : 6
    Format                      : UTF-8
    Codec ID                    : S_TEXT/UTF8
    Codec ID/Info               : UTF-8 Plain Text
    Duration                    : 55 min 19 s
    Bit rate                    : 53 b/s
    Count of elements           : 718
    Stream size                 : 21.7 KiB (0%)
    Title                       : Español latino [CinemaniaHDD]
    Language                    : Spanish
    Default                     : No
    Forced                      : No

    Menu
    00:00:00.000                : Amazon Original
    00:00:04.000                : Disclaimer
    00:00:16.000                : Scene 3
    00:03:21.000                : Scene 4
    00:03:55.000                : Title Sequence
    00:04:00.000                : Scene 6
    00:06:12.000                : Scene 7
    00:07:39.000                : Scene 8
    00:09:30.000                : Scene 9
    00:13:27.000                : Scene 10
    00:15:50.000                : Scene 11
    00:16:55.000                : Scene 12
    00:18:31.000                : Scene 13
    00:19:06.000                : Scene 14
    00:22:13.000                : Scene 15
    00:25:17.000                : Scene 16
    00:27:33.000                : Scene 17
    00:28:03.000                : Scene 18
    00:31:59.000                : Scene 19
    00:36:06.000                : Scene 20
    00:37:18.000                : Scene 21
    00:37:57.000                : Scene 22
    00:40:42.000                : Scene 23
    00:44:45.000                : Scene 24
    00:46:59.000                : Scene 25
    00:48:57.000                : Scene 26
    00:50:41.000                : Scene 27
    00:51:19.000                : Scene 28
    00:52:54.000                : Scene 29
    00:53:30.000                : Scene 30
    00:53:38.000                : End Credits

     

  • Peso: 4.32 GiB Aprox ---- 35 GiB in 8 Chapters.

Sinopsis

La superviviencia pende de un hilo para un grupo de chicas adolescentes que están atrapadas en una isla desierta, después de descubrir que lo que les está pasando es un elaborado experimento social. En la temporada 2 el drama aumenta al presentar más sujetos de estudio (una nueva isla con chicos adolescentes) que también deben sobrevivir bajo la mirada vigilante de quienes controlan todo.

Ficha técnica

Video trailer de la película

Enlaces de descarga

Rip de Bluray

Descargar The Wilds (2022) Segunda Temporada AMZN WEB-DL 1080p Latino




Aportes de DPeliculasHDmega la pass es:dpeliculashdmega.org Aportes de CinemaniaHD la pass es:cinemaniahdd.com
Guardado en : Drama , Misterio , Series

Películas relacionadas

descargar The Wilds (2022) Segunda Temporada AMZN WEB-DL 1080p Latino 1080p 1080p gratis, The Wilds (2022) Segunda Temporada AMZN WEB-DL 1080p Latino 1080p mega 1 link, The Wilds (2022) Segunda Temporada AMZN WEB-DL 1080p Latino 1080p serie completa, descargar The Wilds (2022) Segunda Temporada AMZN WEB-DL 1080p Latino 1080p gratis en mega.

The Wilds (2022) Segunda Temporada AMZN WEB-DL 1080p Latino pelicula full hd, The Wilds (2022) Segunda Temporada AMZN WEB-DL 1080p Latino mega latino, The Wilds (2022) Segunda Temporada AMZN WEB-DL 1080p Latino 4k latino, The Wilds (2022) Segunda Temporada AMZN WEB-DL 1080p Latino pelicula completa, The Wilds (2022) Segunda Temporada AMZN WEB-DL 1080p Latino descargar gratis, descargar The Wilds (2022) Segunda Temporada AMZN WEB-DL 1080p Latino pelicula latino, The Wilds (2022) Segunda Temporada AMZN WEB-DL 1080p Latino 1 link mega, The Wilds (2022) Segunda Temporada AMZN WEB-DL 1080p Latino 1 link google drive, The Wilds (2022) Segunda Temporada AMZN WEB-DL 1080p Latino hd 1080p latino.
Comentarios 0