The Wilds (2020) Temporada 1 AMZN WEB-DL 1080p Latino

53 vistas
1 estrella2 estrellas3 estrellas4 estrellas5 estrellas (1 votos, promedio: 5,00 de 5)
Cargando...

Información de The Wilds (2020) Temporada 1 AMZN WEB-DL 1080p Latino

Datos de la película

  • Calidad:
  • Audio: Español Latino E-AC3 5.1 AMAZON - Ingles E-AC3 5.1 AMAZON
  • Subtitulos: Español Latino SRT- FORZADOS SRT
  • Resolución: 1920x1080
  • Formato: MKV
  • Codec: H.264
  • Encoder: cinemaniahdd
  • Mediainfo: Clic para Mostrar Datos Ver
  • the wilds\The Wilds T01E10 AMZN WEB-DL 1080p Latino [CNMNHDD].mkv
    Format                      : Matroska
    Format version              : Version 4
    File size                   : 4.61 GiB
    Duration                    : 1 h 1 min
    Overall bit rate            : 10.7 Mb/s
    Movie name                  : The Wilds T01E10 - CinemaniaHDD.Net
    Encoded date                : UTC 2020-12-11 03:10:02
    Writing application         : mkvmerge v51.0.0 ('I Wish') 64-bit
    Writing library             : libebml v1.4.0 + libmatroska v1.6.2

    Video
    ID                          : 1
    Format                      : AVC
    Format/Info                 : Advanced Video Codec
    Format profile              : High@L4
    Format settings             : CABAC / 4 Ref Frames
    Format settings, CABAC      : Yes
    Format settings, Reference  : 4 frames
    Codec ID                    : V_MPEG4/ISO/AVC
    Duration                    : 1 h 1 min
    Bit rate mode               : Constant
    Bit rate                    : 8 754 kb/s
    Nominal bit rate            : 10 000 kb/s
    Width                       : 1 920 pixels
    Height                      : 1 080 pixels
    Display aspect ratio        : 16:9
    Frame rate mode             : Constant
    Frame rate                  : 23.976 (24000/1001) FPS
    Color space                 : YUV
    Chroma subsampling          : 4:2:0
    Bit depth                   : 8 bits
    Scan type                   : Progressive
    Bits/(Pixel*Frame)          : 0.176
    Stream size                 : 3.78 GiB (82%)
    Title                       : CinemaniaHDD
    Default                     : Yes
    Forced                      : No
    Color range                 : Limited
    Color primaries             : BT.709
    Transfer characteristics    : BT.709
    Matrix coefficients         : BT.709

    Audio #1
    ID                          : 2
    Format                      : AC-3
    Format/Info                 : Audio Coding 3
    Commercial name             : Dolby Digital
    Codec ID                    : A_AC3
    Duration                    : 1 h 1 min
    Bit rate mode               : Constant
    Bit rate                    : 640 kb/s
    Channel(s)                  : 6 channels
    Channel layout              : L R C LFE Ls Rs
    Sampling rate               : 48.0 kHz
    Frame rate                  : 31.250 FPS (1536 SPF)
    Compression mode            : Lossy
    Stream size                 : 283 MiB (6%)
    Title                       : Español latino - AC3 [CinemaniaHDD]
    Language                    : Spanish
    Service kind                : Complete Main
    Default                     : Yes
    Forced                      : No

    Audio #2
    ID                          : 3
    Format                      : E-AC-3
    Format/Info                 : Enhanced AC-3
    Commercial name             : Dolby Digital Plus
    Codec ID                    : A_EAC3
    Duration                    : 1 h 1 min
    Bit rate mode               : Constant
    Bit rate                    : 640 kb/s
    Channel(s)                  : 6 channels
    Channel layout              : L R C LFE Ls Rs
    Sampling rate               : 48.0 kHz
    Frame rate                  : 31.250 FPS (1536 SPF)
    Compression mode            : Lossy
    Stream size                 : 283 MiB (6%)
    Title                       : Español latino - E-AC3 [CinemaniaHDD]
    Language                    : Spanish
    Service kind                : Complete Main
    Default                     : No
    Forced                      : No

    Audio #3
    ID                          : 4
    Format                      : E-AC-3
    Format/Info                 : Enhanced AC-3
    Commercial name             : Dolby Digital Plus
    Codec ID                    : A_EAC3
    Duration                    : 1 h 1 min
    Bit rate mode               : Constant
    Bit rate                    : 640 kb/s
    Channel(s)                  : 6 channels
    Channel layout              : L R C LFE Ls Rs
    Sampling rate               : 48.0 kHz
    Frame rate                  : 31.250 FPS (1536 SPF)
    Compression mode            : Lossy
    Stream size                 : 283 MiB (6%)
    Title                       : Inglés - E-AC3 [CinemaniaHDD]
    Language                    : English
    Service kind                : Complete Main
    Default                     : No
    Forced                      : No

    Text #1
    ID                          : 5
    Format                      : UTF-8
    Codec ID                    : S_TEXT/UTF8
    Codec ID/Info               : UTF-8 Plain Text
    Duration                    : 59 min 9 s
    Bit rate                    : 1 b/s
    Count of elements           : 29
    Stream size                 : 824 Bytes (0%)
    Title                       : Forzados [CinemaniaHDD]
    Language                    : Spanish
    Default                     : Yes
    Forced                      : Yes

    Text #2
    ID                          : 6
    Format                      : UTF-8
    Codec ID                    : S_TEXT/UTF8
    Codec ID/Info               : UTF-8 Plain Text
    Duration                    : 1 h 1 min
    Bit rate                    : 46 b/s
    Count of elements           : 686
    Stream size                 : 20.8 KiB (0%)
    Title                       : Español latino [CinemaniaHDD]
    Language                    : Spanish
    Default                     : No
    Forced                      : No

    Text #3
    ID                          : 7
    Format                      : UTF-8
    Codec ID                    : S_TEXT/UTF8
    Codec ID/Info               : UTF-8 Plain Text
    Duration                    : 1 h 1 min
    Bit rate                    : 61 b/s
    Count of elements           : 1121
    Stream size                 : 27.8 KiB (0%)
    Title                       : Inglés [CinemaniaHDD]
    Language                    : English
    Default                     : No
    Forced                      : No

    Menu
    00:00:00.000                : en:Amazon Original
    00:00:05.000                : en:Nora's deception
    00:03:03.000                : en:Title Sequence
    00:03:08.000                : en:Shelby's having a tough time
    00:05:08.000                : en:Return to camp
    00:06:46.000                : en:Leah wakes up
    00:08:52.000                : en:Confirmation
    00:09:52.000                : en:Nora suspects
    00:10:40.000                : en:New classes
    00:12:51.000                : en:Someone sees Nora
    00:16:46.000                : en:Close to 4th of July
    00:19:27.000                : en:Rachel meets Quinn
    00:23:42.000                : en:A romantic tour of the summer
    00:27:45.000                : en:Into the woods
    00:29:16.000                : en:Missing Quinn
    00:31:03.000                : en:Following Nora
    00:32:24.000                : en:Another disaster
    00:33:18.000                : en:A fortuitous meeting
    00:36:02.000                : en:Are you thriving?
    00:40:57.000                : en:Leah asks for help
    00:45:50.000                : en:Panic sets in
    00:46:45.000                : en:Everyone is struggling with something
    00:50:29.000                : en:What everyone wants
    00:54:42.000                : en:Leah returns
    00:56:21.000                : en:Code purple
    00:59:48.000                : en:End Credits

     

  • Peso: 4.61 GiB Aprox ---- 38.5 GiB in 10 Chapters.

Sinopsis

Un grupo de adolescentes de diferentes entornos debe luchar por sobrevivir después de que su avión cae y quedan varadas en una isla desierta. Las náufragas se enfrentan o se unen conforme aprenden los secretos y traumas que han vivido. Pero hay algo inesperado en este drama emocionante… las chicas no terminaron en la isla por accidente.

Ficha técnica

Video trailer de la película

Enlaces de descarga

Rip de Bluray

Descargar The Wilds (2020) Temporada 1 AMZN WEB-DL 1080p Latino




Aportes de DPeliculasHDmega la pass es:dpeliculashdmega.org Aportes de CinemaniaHD la pass es:cinemaniahdd.com

Películas relacionadas

Comentarios 0