×

¿Problemas para descargar con Mozilla, EDGE? Deshabilita la opción "Abrir vinculos en una pestaña nueva" tal como lo muestra ésta imagen.

The Wheel of Time (2023) Segunda Temporada AMZN WEB-DL 1080p Latino

253 vistas

Información de The Wheel of Time (2023) Segunda Temporada AMZN WEB-DL 1080p Latino

Datos de la película

  • Calidad:
  • Audio: Español Latino AC3 5.1 WEB-DL - Ingles AC3 5.1 WEB-DL
  • Subtitulos: Español Latino SRT- FORZADOS SRT
  • Resolución: 1920x1080
  • Formato: MKV
  • Codec: H.264
  • Encoder: cinemaniahdd
  • Mediainfo: Clic para Mostrar Datos Ver
  • The Wheel of Time T02E03 AMZN WEB-DL 1080p Latino [CNMNHDD].mkv
    Format                      : Matroska
    Format version              : Version 4
    File size                   : 4.88 GiB
    Duration                    : 1 h 9 min
    Overall bit rate            : 10.0 Mb/s
    Movie name                  : The Wheel of Time S02E03 - What Might Be [1080p] - CinemaniaHDD.Net
    Encoded date                : UTC 2023-09-01 00:14:22
    Writing application         : mkvmerge v56.1.0 ('My Friend') 64-bit
    Writing library             : libebml v1.4.2 + libmatroska v1.6.4

    Video
    ID                          : 1
    Format                      : AVC
    Format/Info                 : Advanced Video Codec
    Format profile              : High@L4
    Format settings             : CABAC / 4 Ref Frames
    Format settings, CABAC      : Yes
    Format settings, Reference  : 4 frames
    Codec ID                    : V_MPEG4/ISO/AVC
    Duration                    : 1 h 9 min
    Bit rate mode               : Constant
    Bit rate                    : 8 125 kb/s
    Nominal bit rate            : 10 000 kb/s
    Width                       : 1 920 pixels
    Height                      : 1 080 pixels
    Display aspect ratio        : 16:9
    Frame rate mode             : Constant
    Frame rate                  : 23.976 (24000/1001) FPS
    Color space                 : YUV
    Chroma subsampling          : 4:2:0
    Bit depth                   : 8 bits
    Scan type                   : Progressive
    Bits/(Pixel*Frame)          : 0.163
    Stream size                 : 3.94 GiB (81%)
    Title                       : CinemaniaHDD
    Default                     : Yes
    Forced                      : No
    Color range                 : Limited
    Color primaries             : BT.709
    Transfer characteristics    : BT.709
    Matrix coefficients         : BT.709

    Audio #1
    ID                          : 2
    Format                      : AC-3
    Format/Info                 : Audio Coding 3
    Commercial name             : Dolby Digital
    Codec ID                    : A_AC3
    Duration                    : 1 h 9 min
    Bit rate mode               : Constant
    Bit rate                    : 640 kb/s
    Channel(s)                  : 6 channels
    Channel layout              : L R C LFE Ls Rs
    Sampling rate               : 48.0 kHz
    Frame rate                  : 31.250 FPS (1536 SPF)
    Compression mode            : Lossy
    Stream size                 : 318 MiB (6%)
    Title                       : Español Latino [CinemaniaHDD]
    Language                    : Spanish
    Service kind                : Complete Main
    Default                     : Yes
    Forced                      : No

    Audio #2
    ID                          : 3
    Format                      : E-AC-3
    Format/Info                 : Enhanced AC-3
    Commercial name             : Dolby Digital Plus
    Codec ID                    : A_EAC3
    Duration                    : 1 h 9 min
    Bit rate mode               : Constant
    Bit rate                    : 640 kb/s
    Channel(s)                  : 6 channels
    Channel layout              : L R C LFE Ls Rs
    Sampling rate               : 48.0 kHz
    Frame rate                  : 31.250 FPS (1536 SPF)
    Compression mode            : Lossy
    Stream size                 : 318 MiB (6%)
    Title                       : Español latino / E-AC3 [CinemaniaHDD]
    Language                    : Spanish
    Service kind                : Complete Main
    Default                     : No
    Forced                      : No

    Audio #3
    ID                          : 4
    Format                      : E-AC-3
    Format/Info                 : Enhanced AC-3
    Commercial name             : Dolby Digital Plus
    Codec ID                    : A_EAC3
    Duration                    : 1 h 9 min
    Bit rate mode               : Constant
    Bit rate                    : 640 kb/s
    Channel(s)                  : 6 channels
    Channel layout              : L R C LFE Ls Rs
    Sampling rate               : 48.0 kHz
    Frame rate                  : 31.250 FPS (1536 SPF)
    Compression mode            : Lossy
    Stream size                 : 318 MiB (6%)
    Title                       : Inglés [CinemaniaHDD]
    Language                    : English
    Service kind                : Complete Main
    Default                     : No
    Forced                      : No

    Text #1
    ID                          : 5
    Format                      : UTF-8
    Codec ID                    : S_TEXT/UTF8
    Codec ID/Info               : UTF-8 Plain Text
    Duration                    : 20 min 40 s
    Bit rate                    : 0 b/s
    Count of elements           : 5
    Stream size                 : 124 Bytes (0%)
    Title                       : Forzados [CinemaniaHDD]
    Language                    : Spanish
    Default                     : Yes
    Forced                      : Yes

    Text #2
    ID                          : 6
    Format                      : UTF-8
    Codec ID                    : S_TEXT/UTF8
    Codec ID/Info               : UTF-8 Plain Text
    Duration                    : 1 h 5 min
    Bit rate                    : 43 b/s
    Count of elements           : 707
    Stream size                 : 20.9 KiB (0%)
    Title                       : Español Latino [CinemaniaHDD]
    Language                    : Spanish
    Default                     : No
    Forced                      : No

    Text #3
    ID                          : 7
    Format                      : UTF-8
    Codec ID                    : S_TEXT/UTF8
    Codec ID/Info               : UTF-8 Plain Text
    Duration                    : 1 h 5 min
    Bit rate                    : 52 b/s
    Count of elements           : 965
    Stream size                 : 25.2 KiB (0%)
    Title                       : Inglés [CinemaniaHDD]
    Language                    : English
    Default                     : No
    Forced                      : No

    Menu
    00:00:00.000                : 1. Prime Video
    00:00:05.000                : 2. Previously On
    00:01:05.000                : Scene 3
    00:04:55.000                : Scene 4
    00:08:22.000                : Scene 5
    00:10:08.000                : Scene 6
    00:13:01.000                : Scene 7
    00:14:03.000                : Scene 8
    00:16:21.000                : Scene 9
    00:17:25.000                : Scene 10
    00:19:39.000                : Scene 11
    00:20:38.000                : 12. Title Sequence
    00:20:55.000                : Scene 13
    00:26:47.000                : Scene 14
    00:31:54.000                : Scene 15
    00:34:26.000                : Scene 16
    00:37:18.000                : Scene 17
    00:39:23.000                : Scene 18
    00:43:24.000                : Scene 19
    00:46:04.000                : Scene 20
    00:47:01.000                : Scene 21
    00:48:18.000                : Scene 22
    00:51:46.000                : Scene 23
    00:52:03.000                : Scene 24
    00:52:39.000                : Scene 25
    00:53:20.000                : Scene 26
    00:55:20.000                : Scene 27
    00:57:45.000                : Scene 28
    00:59:17.000                : Scene 29
    01:03:04.000                : Scene 30
    01:03:44.000                : 31. End Credits

     

  • Peso: 4.88 GiB Aprox ---- 38 GiB in 8 Chapters.

Sinopsis

Aunque Rand cree haber destruido al Oscuro, el mal no ha abandonado al mundo. Nuevas y viejas amenazas buscan a los jóvenes amigos de Dos Ríos que están diseminados por el mundo, La mujer que los encontró y guió ahora es incapaz de ayudarlos y ellos deben encontrar otras fuentes de fortaleza entre ellos, en ellos mismos, en la Luz… o en la Oscuridad.

Ficha técnica

Video trailer de la película

Enlaces de descarga

Rip de Bluray

Descargar The Wheel of Time (2023) Segunda Temporada AMZN WEB-DL 1080p Latino




Aportes de DPeliculasHDmega la pass es:dpeliculashdmega.org Aportes de CinemaniaHD la pass es:cinemaniahdd.com Aportes recientes:cinemaniahdd.net
Guardado en : Drama , Sci-Fi & Fantasy , Series

Películas relacionadas

descargar The Wheel of Time (2023) Segunda Temporada AMZN WEB-DL 1080p Latino 1080p gratis, The Wheel of Time (2023) Segunda Temporada AMZN WEB-DL 1080p Latino mega 1 link, The Wheel of Time (2023) Segunda Temporada AMZN WEB-DL 1080p Latino serie completa, descargar The Wheel of Time (2023) Segunda Temporada AMZN WEB-DL 1080p Latino gratis en mega.

The Wheel of Time (2023) Segunda Temporada AMZN WEB-DL 1080p Latino pelicula full hd, The Wheel of Time (2023) Segunda Temporada AMZN WEB-DL 1080p Latino mega latino, The Wheel of Time (2023) Segunda Temporada AMZN WEB-DL 1080p Latino 4k latino, The Wheel of Time (2023) Segunda Temporada AMZN WEB-DL 1080p Latino pelicula completa, The Wheel of Time (2023) Segunda Temporada AMZN WEB-DL 1080p Latino descargar gratis, descargar The Wheel of Time (2023) Segunda Temporada AMZN WEB-DL 1080p Latino pelicula latino, The Wheel of Time (2023) Segunda Temporada AMZN WEB-DL 1080p Latino 1 link mega, The Wheel of Time (2023) Segunda Temporada AMZN WEB-DL 1080p Latino 1 link google drive, The Wheel of Time (2023) Segunda Temporada AMZN WEB-DL 1080p Latino hd 1080p latino.
Comentarios 0