×

¿Problemas para descargar con Mozilla, EDGE? Deshabilita la opción "Abrir vinculos en una pestaña nueva" tal como lo muestra ésta imagen.

The Wheel of Time (2021) Primera Temporada AMZN WEB-DL 1080p Latino

779 vistas

Información de The Wheel of Time (2021) Primera Temporada AMZN WEB-DL 1080p Latino

Datos de la película

  • Calidad: 1080p
  • Audio: Español Latino AC3 5.1 WEB-DL - Ingles AC3 5.1 WEB-DL
  • Subtitulos: Español Latino SRT- FORZADOS SRT
  • Resolución: 1920x1080
  • Formato: MKV
  • Codec: H.264
  • Encoder: cinemaniahdd
  • Mediainfo: Clic para Mostrar Datos Ver
  • The Wheel of Time T01E01 AMZN WEB-DL 1080p Latino [CNMNHDD].mkv
    Format                      : Matroska
    Format version              : Version 4
    File size                   : 4.01 GiB
    Duration                    : 54 min 4 s
    Overall bit rate            : 10.6 Mb/s
    Movie name                  : The Wheel of Time T01E01 - CinemaniaHDD.Net
    Encoded date                : UTC 2021-11-19 00:09:13
    Writing application         : mkvmerge v56.1.0 ('My Friend') 64-bit
    Writing library             : libebml v1.4.2 + libmatroska v1.6.4

    Video
    ID                          : 1
    Format                      : AVC
    Format/Info                 : Advanced Video Codec
    Format profile              : High@L4
    Format settings             : CABAC / 4 Ref Frames
    Format settings, CABAC      : Yes
    Format settings, Reference  : 4 frames
    Codec ID                    : V_MPEG4/ISO/AVC
    Duration                    : 54 min 4 s
    Bit rate mode               : Constant
    Bit rate                    : 8 682 kb/s
    Nominal bit rate            : 10 000 kb/s
    Width                       : 1 920 pixels
    Height                      : 1 080 pixels
    Display aspect ratio        : 16:9
    Frame rate mode             : Constant
    Frame rate                  : 23.976 (24000/1001) FPS
    Color space                 : YUV
    Chroma subsampling          : 4:2:0
    Bit depth                   : 8 bits
    Scan type                   : Progressive
    Bits/(Pixel*Frame)          : 0.175
    Stream size                 : 3.28 GiB (82%)
    Title                       : CinemaniaHDD
    Default                     : Yes
    Forced                      : No
    Color range                 : Limited
    Color primaries             : BT.709
    Transfer characteristics    : BT.709
    Matrix coefficients         : BT.709

    Audio #1
    ID                          : 2
    Format                      : AC-3
    Format/Info                 : Audio Coding 3
    Commercial name             : Dolby Digital
    Codec ID                    : A_AC3
    Duration                    : 54 min 4 s
    Bit rate mode               : Constant
    Bit rate                    : 640 kb/s
    Channel(s)                  : 6 channels
    Channel layout              : L R C LFE Ls Rs
    Sampling rate               : 48.0 kHz
    Frame rate                  : 31.250 FPS (1536 SPF)
    Compression mode            : Lossy
    Stream size                 : 248 MiB (6%)
    Title                       : Español latino [CinemaniaHDD]
    Language                    : Spanish
    Service kind                : Complete Main
    Default                     : Yes
    Forced                      : No

    Audio #2
    ID                          : 3
    Format                      : E-AC-3
    Format/Info                 : Enhanced AC-3
    Commercial name             : Dolby Digital Plus
    Codec ID                    : A_EAC3
    Duration                    : 54 min 4 s
    Bit rate mode               : Constant
    Bit rate                    : 640 kb/s
    Channel(s)                  : 6 channels
    Channel layout              : L R C LFE Ls Rs
    Sampling rate               : 48.0 kHz
    Frame rate                  : 31.250 FPS (1536 SPF)
    Compression mode            : Lossy
    Stream size                 : 248 MiB (6%)
    Title                       : Español latino / E-AC3 [CinemaniaHDD]
    Language                    : Spanish
    Service kind                : Complete Main
    Default                     : No
    Forced                      : No

    Audio #3
    ID                          : 4
    Format                      : E-AC-3
    Format/Info                 : Enhanced AC-3
    Commercial name             : Dolby Digital Plus
    Codec ID                    : A_EAC3
    Duration                    : 54 min 4 s
    Bit rate mode               : Constant
    Bit rate                    : 640 kb/s
    Channel(s)                  : 6 channels
    Channel layout              : L R C LFE Ls Rs
    Sampling rate               : 48.0 kHz
    Frame rate                  : 31.250 FPS (1536 SPF)
    Compression mode            : Lossy
    Stream size                 : 248 MiB (6%)
    Title                       : Inglés [CinemaniaHDD]
    Language                    : English
    Service kind                : Complete Main
    Default                     : No
    Forced                      : No

    Text #1
    ID                          : 5
    Format                      : UTF-8
    Codec ID                    : S_TEXT/UTF8
    Codec ID/Info               : UTF-8 Plain Text
    Duration                    : 5 s 964 ms
    Bit rate                    : 26 b/s
    Count of elements           : 1
    Stream size                 : 20.0 Bytes (0%)
    Title                       : Forzados [CinemaniaHDD]
    Language                    : Spanish
    Default                     : Yes
    Forced                      : Yes

    Text #2
    ID                          : 6
    Format                      : UTF-8
    Codec ID                    : S_TEXT/UTF8
    Codec ID/Info               : UTF-8 Plain Text
    Duration                    : 53 min 38 s
    Bit rate                    : 30 b/s
    Count of elements           : 390
    Stream size                 : 11.9 KiB (0%)
    Title                       : Español latino [CinemaniaHDD]
    Language                    : Spanish
    Default                     : No
    Forced                      : No

    Menu
    00:00:00.000                : Amazon Original
    00:00:05.000                : Scene 2
    00:01:00.000                : Scene 3
    00:03:13.000                : Scene 4
    00:04:17.000                : Opening Credits
    00:04:33.000                : Scene 6
    00:05:47.000                : Scene 7
    00:06:55.000                : Scene 8
    00:08:57.000                : Scene 9
    00:10:39.000                : Scene 10
    00:13:25.000                : Scene 11
    00:14:08.000                : Scene 12
    00:15:26.000                : Scene 13
    00:16:05.000                : Scene 14
    00:17:47.000                : Scene 15
    00:19:03.000                : Scene 16
    00:20:39.000                : Scene 17
    00:21:00.000                : Scene 18
    00:23:01.000                : Scene 19
    00:24:35.000                : Scene 20
    00:27:01.000                : Scene 21
    00:27:33.000                : Scene 22
    00:28:30.000                : Scene 23
    00:28:57.000                : Scene 24
    00:29:42.000                : Scene 25
    00:31:55.000                : Scene 26
    00:32:20.000                : Scene 27
    00:36:26.000                : Scene 28
    00:38:10.000                : Scene 29
    00:43:01.000                : Scene 30
    00:45:10.000                : Scene 31
    00:51:21.000                : End Credits

     

  • Peso: 4.01 GiB Aprox ---- 39 GiB in 8 Chapters.

Sinopsis

Las vidas de cuatro jóvenes cambian para siempre cuando una desconocida llega a su aldea afirmando que uno de ellos es la encarnación de una antigua profecía y tiene el poder de inclinar la balanza entre la Luz y la Oscuridad. Deberán decidir si dejar en manos de la desconocida (y de ellos mismos) el destino del mundo antes de que el Oscuro escape de su prisión y comience la Última Batalla.

Ficha técnica

Video trailer de la película

Enlaces de descarga

Rip de Bluray

Descargar The Wheel of Time (2021) Primera Temporada AMZN WEB-DL 1080p Latino




Aportes de DPeliculasHDmega la pass es:dpeliculashdmega.org Aportes de CinemaniaHD la pass es:cinemaniahdd.com

Películas relacionadas

descargar The Wheel of Time (2021) Primera Temporada AMZN WEB-DL 1080p Latino 1080p 1080p gratis, The Wheel of Time (2021) Primera Temporada AMZN WEB-DL 1080p Latino 1080p mega 1 link, The Wheel of Time (2021) Primera Temporada AMZN WEB-DL 1080p Latino 1080p serie completa, descargar The Wheel of Time (2021) Primera Temporada AMZN WEB-DL 1080p Latino 1080p gratis en mega.

The Wheel of Time (2021) Primera Temporada AMZN WEB-DL 1080p Latino pelicula full hd, The Wheel of Time (2021) Primera Temporada AMZN WEB-DL 1080p Latino mega latino, The Wheel of Time (2021) Primera Temporada AMZN WEB-DL 1080p Latino 4k latino, The Wheel of Time (2021) Primera Temporada AMZN WEB-DL 1080p Latino pelicula completa, The Wheel of Time (2021) Primera Temporada AMZN WEB-DL 1080p Latino descargar gratis, descargar The Wheel of Time (2021) Primera Temporada AMZN WEB-DL 1080p Latino pelicula latino, The Wheel of Time (2021) Primera Temporada AMZN WEB-DL 1080p Latino 1 link mega, The Wheel of Time (2021) Primera Temporada AMZN WEB-DL 1080p Latino 1 link google drive, The Wheel of Time (2021) Primera Temporada AMZN WEB-DL 1080p Latino hd 1080p latino.
Comentarios 4
  • Mark - 19 noviembre, 2021

    En el futuro deberian agregar mediafire o fireload entiendan que el Google drive ya no sirve

    • CinemaniaHDD - 19 noviembre, 2021

      Hola, pues ahi tienes mas opciones de descarga. yo ya te comprati los archivos ya es cuestion tuya de comprar PREMIUM en una de las 3 o 4 opciones de descarga que subo.

  • Fran - 18 noviembre, 2021

    ¿Hola muchas gracias, la subirán en 4k?

    • CinemaniaHDD - 19 noviembre, 2021

      Hola, de mi parte no amigo, si ya se anima uno de los otros uploder quisas.