×

¿Problemas para descargar con Mozilla, EDGE? Deshabilita la opción "Abrir vinculos en una pestaña nueva" tal como lo muestra ésta imagen.

The Wheel of Time (2021) Primera Temporada AMZN WEB-DL 1080p Latino

1.103 vistas

Información de The Wheel of Time (2021) Primera Temporada AMZN WEB-DL 1080p Latino

Datos de la película

  • Calidad: 1080p
  • Audio: Español Latino AC3 5.1 WEB-DL - Ingles AC3 5.1 WEB-DL
  • Subtitulos: Español Latino SRT- FORZADOS SRT
  • Resolución: 1920x1080
  • Formato: MKV
  • Codec: H.264
  • Encoder: cinemaniahdd
  • Mediainfo: Clic para Mostrar Datos Ver
  • The Wheel of Time T01E08 AMZN WEB-DL 1080p Latino [CNMNHDD].mkv
    Format                      : Matroska
    Format version              : Version 4
    File size                   : 4.55 GiB
    Duration                    : 1 h 3 min
    Overall bit rate            : 10.2 Mb/s
    Movie name                  : The Wheel of Time S01E08 - The Eye of the World [1080p] - CinemaniaHDD.Net
    Encoded date                : UTC 2023-09-01 23:48:27
    Writing application         : mkvmerge v56.1.0 ('My Friend') 64-bit
    Writing library             : libebml v1.4.2 + libmatroska v1.6.4

    Video
    ID                          : 1
    Format                      : AVC
    Format/Info                 : Advanced Video Codec
    Format profile              : High@L4
    Format settings             : CABAC / 4 Ref Frames
    Format settings, CABAC      : Yes
    Format settings, Reference  : 4 frames
    Codec ID                    : V_MPEG4/ISO/AVC
    Duration                    : 1 h 3 min
    Bit rate mode               : Constant
    Bit rate                    : 8 315 kb/s
    Nominal bit rate            : 10 000 kb/s
    Width                       : 1 920 pixels
    Height                      : 1 080 pixels
    Display aspect ratio        : 16:9
    Frame rate mode             : Constant
    Frame rate                  : 24.000 FPS
    Color space                 : YUV
    Chroma subsampling          : 4:2:0
    Bit depth                   : 8 bits
    Scan type                   : Progressive
    Bits/(Pixel*Frame)          : 0.167
    Stream size                 : 3.69 GiB (81%)
    Title                       : CinemaniaHDD
    Default                     : Yes
    Forced                      : No
    Color range                 : Limited
    Color primaries             : BT.709
    Transfer characteristics    : BT.709
    Matrix coefficients         : BT.709

    Audio #1
    ID                          : 2
    Format                      : AC-3
    Format/Info                 : Audio Coding 3
    Commercial name             : Dolby Digital
    Codec ID                    : A_AC3
    Duration                    : 1 h 3 min
    Bit rate mode               : Constant
    Bit rate                    : 640 kb/s
    Channel(s)                  : 6 channels
    Channel layout              : L R C LFE Ls Rs
    Sampling rate               : 48.0 kHz
    Frame rate                  : 31.250 FPS (1536 SPF)
    Compression mode            : Lossy
    Stream size                 : 291 MiB (6%)
    Title                       : Español Latino [CinemaniaHDD]
    Language                    : Spanish
    Service kind                : Complete Main
    Default                     : Yes
    Forced                      : No

    Audio #2
    ID                          : 3
    Format                      : E-AC-3
    Format/Info                 : Enhanced AC-3
    Commercial name             : Dolby Digital Plus
    Codec ID                    : A_EAC3
    Duration                    : 1 h 3 min
    Bit rate mode               : Constant
    Bit rate                    : 640 kb/s
    Channel(s)                  : 6 channels
    Channel layout              : L R C LFE Ls Rs
    Sampling rate               : 48.0 kHz
    Frame rate                  : 31.250 FPS (1536 SPF)
    Compression mode            : Lossy
    Stream size                 : 291 MiB (6%)
    Title                       : Español latino / E-AC3 [CinemaniaHDD]
    Language                    : Spanish
    Service kind                : Complete Main
    Default                     : No
    Forced                      : No

    Audio #3
    ID                          : 4
    Format                      : E-AC-3
    Format/Info                 : Enhanced AC-3
    Commercial name             : Dolby Digital Plus
    Codec ID                    : A_EAC3
    Duration                    : 1 h 3 min
    Bit rate mode               : Constant
    Bit rate                    : 640 kb/s
    Channel(s)                  : 6 channels
    Channel layout              : L R C LFE Ls Rs
    Sampling rate               : 48.0 kHz
    Frame rate                  : 31.250 FPS (1536 SPF)
    Compression mode            : Lossy
    Stream size                 : 291 MiB (6%)
    Title                       : Inglés [CinemaniaHDD]
    Language                    : English
    Service kind                : Complete Main
    Default                     : No
    Forced                      : No

    Text #1
    ID                          : 5
    Format                      : UTF-8
    Codec ID                    : S_TEXT/UTF8
    Codec ID/Info               : UTF-8 Plain Text
    Duration                    : 54 min 41 s
    Bit rate                    : 3 b/s
    Count of elements           : 42
    Stream size                 : 1.31 KiB (0%)
    Title                       : Forzados [CinemaniaHDD]
    Language                    : Spanish
    Default                     : Yes
    Forced                      : Yes

    Text #2
    ID                          : 6
    Format                      : UTF-8
    Codec ID                    : S_TEXT/UTF8
    Codec ID/Info               : UTF-8 Plain Text
    Duration                    : 1 h 0 min
    Bit rate                    : 39 b/s
    Count of elements           : 581
    Stream size                 : 17.3 KiB (0%)
    Title                       : Español Latino [CinemaniaHDD]
    Language                    : Spanish
    Default                     : No
    Forced                      : No

    Text #3
    ID                          : 7
    Format                      : UTF-8
    Codec ID                    : S_TEXT/UTF8
    Codec ID/Info               : UTF-8 Plain Text
    Duration                    : 1 h 0 min
    Bit rate                    : 49 b/s
    Count of elements           : 872
    Stream size                 : 22.1 KiB (0%)
    Title                       : Inglés [CinemaniaHDD]
    Language                    : English
    Default                     : No
    Forced                      : No

    Menu
    00:00:00.000                : 1. Amazon Original
    00:00:05.000                : 2. Previously On
    00:01:12.000                : Scene 3
    00:03:47.000                : 4. Opening Credits
    00:05:19.000                : Scene 5
    00:06:09.000                : Scene 6
    00:07:07.000                : Scene 7
    00:08:25.000                : Scene 8
    00:10:22.000                : Scene 9
    00:13:36.000                : Scene 10
    00:15:07.000                : Scene 11
    00:16:03.000                : Scene 12
    00:18:11.000                : Scene 13
    00:19:03.000                : Scene 14
    00:19:29.000                : Scene 15
    00:20:35.000                : Scene 16
    00:21:34.000                : Scene 17
    00:21:55.000                : Scene 18
    00:24:20.000                : Scene 19
    00:26:09.000                : Scene 20
    00:28:12.000                : Scene 21
    00:28:44.000                : Scene 22
    00:29:41.000                : Scene 23
    00:31:17.000                : Scene 24
    00:31:50.000                : Scene 25
    00:32:24.000                : Scene 26
    00:36:04.000                : Scene 27
    00:36:19.000                : Scene 28
    00:37:01.000                : Scene 29
    00:38:17.000                : Scene 30
    00:38:44.000                : Scene 31
    00:39:08.000                : Scene 32
    00:40:18.000                : Scene 33
    00:40:32.000                : Scene 34
    00:41:42.000                : Scene 35
    00:42:02.000                : Scene 36
    00:42:16.000                : Scene 37
    00:42:35.000                : Scene 38
    00:43:13.000                : Scene 39
    00:44:43.000                : Scene 40
    00:45:26.000                : Scene 41
    00:46:52.000                : Scene 42
    00:53:04.000                : Scene 43
    00:54:40.000                : 44. A Preview of Season 2 of the Wheel Of Time
    00:58:48.000                : 45. End Credits

     

     

  • Peso: 4.55 GiB Aprox ---- 36 GiB in 8 Chapters.

Sinopsis

Las vidas de cuatro jóvenes cambian para siempre cuando una desconocida llega a su aldea afirmando que uno de ellos es la encarnación de una antigua profecía y tiene el poder de inclinar la balanza entre la Luz y la Oscuridad. Deberán decidir si dejar en manos de la desconocida (y de ellos mismos) el destino del mundo antes de que el Oscuro escape de su prisión y comience la Última Batalla.

Ficha técnica

Video trailer de la película

Enlaces de descarga

Rip de Bluray

Descargar The Wheel of Time (2021) Primera Temporada AMZN WEB-DL 1080p Latino




Aportes de DPeliculasHDmega la pass es:dpeliculashdmega.org Aportes de CinemaniaHD la pass es:cinemaniahdd.com Aportes recientes:cinemaniahdd.net

Películas relacionadas

  • Red de venganza (2023) HD 1080p Latino

    Red de venganza (2023) HD 1080p Latino

    2023
    Red de venganza (2023) HD 1080p Latino

    1h 25m 2023

    Descargar Red de venganza (2023) HD 1080p Latino. Analiza los problemas que surgen entre una madre (Summer...

    Director: Amy Redford

    Género: Drama

    Actores: Summer Phoenix

  • Red de venganza (2023) REMUX 1080p Latino

    Red de venganza (2023) REMUX 1080p Latino

    2023
    Red de venganza (2023) REMUX 1080p Latino

    1h 25m 2023

    Descargar Red de venganza (2023) REMUX 1080p Latino. Analiza los problemas que surgen entre una madre...

    Director: Amy Redford

    Género: Drama

    Actores: Summer Phoenix

  • Recuerdos Mortales (2024) WEB-DL 1080p Latino

    Recuerdos Mortales (2024) WEB-DL 1080p Latino

    2024
    Recuerdos Mortales (2024) WEB-DL 1080p Latino

    1h 52m 2024

    Descargar Recuerdos Mortales (2024) WEB-DL 1080p Latino. Después de someterse a un tratamiento de vanguardia...

    Director: Adam Cooper

    Género: Crimen

    Actores: Tommy Flanagan

descargar The Wheel of Time (2021) Primera Temporada AMZN WEB-DL 1080p Latino 1080p 1080p gratis, The Wheel of Time (2021) Primera Temporada AMZN WEB-DL 1080p Latino 1080p mega 1 link, The Wheel of Time (2021) Primera Temporada AMZN WEB-DL 1080p Latino 1080p serie completa, descargar The Wheel of Time (2021) Primera Temporada AMZN WEB-DL 1080p Latino 1080p gratis en mega.

The Wheel of Time (2021) Primera Temporada AMZN WEB-DL 1080p Latino pelicula full hd, The Wheel of Time (2021) Primera Temporada AMZN WEB-DL 1080p Latino mega latino, The Wheel of Time (2021) Primera Temporada AMZN WEB-DL 1080p Latino 4k latino, The Wheel of Time (2021) Primera Temporada AMZN WEB-DL 1080p Latino pelicula completa, The Wheel of Time (2021) Primera Temporada AMZN WEB-DL 1080p Latino descargar gratis, descargar The Wheel of Time (2021) Primera Temporada AMZN WEB-DL 1080p Latino pelicula latino, The Wheel of Time (2021) Primera Temporada AMZN WEB-DL 1080p Latino 1 link mega, The Wheel of Time (2021) Primera Temporada AMZN WEB-DL 1080p Latino 1 link google drive, The Wheel of Time (2021) Primera Temporada AMZN WEB-DL 1080p Latino hd 1080p latino.
Comentarios 4