×

¿Problemas para descargar con Mozilla, EDGE? Deshabilita la opción "Abrir vinculos en una pestaña nueva" tal como lo muestra ésta imagen.

La Ballena (2022) REMUX 1080p Latino – CMHDD

484 vistas

Información de La Ballena (2022) REMUX 1080p Latino – CMHDD

Datos de la película

  • Calidad: Full 1080p
  • Audio: Español Latino AC3 5.1 WEB-DL - Ingles DTS 5.1 BLURAY
  • Subtitulos: Español Latino PGS
  • Resolución: 1920x1080p
  • Formato: MKV
  • Codec: H.264
  • Encoder: Dracarys
  • Mediainfo: Clic para Mostrar Datos Ver
  • La Ballena (2022) REMUX 1080p Latino.mkv
    Format                      : Matroska
    Format version              : Version 4
    File size                   : 23.6 GiB
    Duration                    : 1 h 56 min
    Overall bit rate mode       : Variable
    Overall bit rate            : 29.0 Mb/s
    Movie name                  : The Whale (2022) CinemaniaHDD.Net
    Encoded date                : UTC 2023-04-07 19:32:43
    Writing application         : mkvmerge v56.1.0 ('My Friend') 64-bit
    Writing library             : libebml v1.4.2 + libmatroska v1.6.4
    Attachments                 : CINEMANIAHD.png

    Video
    ID                          : 1
    ID in the original source m : 4113 (0x1011)
    Format                      : AVC
    Format/Info                 : Advanced Video Codec
    Format profile              : High@L4.1
    Format settings             : CABAC / 4 Ref Frames
    Format settings, CABAC      : Yes
    Format settings, Reference  : 4 frames
    Codec ID                    : V_MPEG4/ISO/AVC
    Duration                    : 1 h 56 min
    Bit rate mode               : Variable
    Bit rate                    : 25.0 Mb/s
    Maximum bit rate            : 35.0 Mb/s
    Width                       : 1 920 pixels
    Height                      : 1 080 pixels
    Display aspect ratio        : 16:9
    Frame rate mode             : Constant
    Frame rate                  : 23.976 (24000/1001) FPS
    Standard                    : NTSC
    Color space                 : YUV
    Chroma subsampling          : 4:2:0
    Bit depth                   : 8 bits
    Scan type                   : Progressive
    Bits/(Pixel*Frame)          : 0.503
    Stream size                 : 20.4 GiB (86%)
    Title                       : REMUX HD1080p [CinemaniaHDD]
    Default                     : Yes
    Forced                      : Yes
    Color range                 : Limited
    Color primaries             : BT.709
    Transfer characteristics    : BT.709
    Matrix coefficients         : BT.709
    Original source medium      : Blu-ray

    Audio #1
    ID                          : 2
    Format                      : AC-3
    Format/Info                 : Audio Coding 3
    Commercial name             : Dolby Digital
    Codec ID                    : A_AC3
    Duration                    : 1 h 56 min
    Bit rate mode               : Constant
    Bit rate                    : 448 kb/s
    Channel(s)                  : 6 channels
    Channel layout              : L R C LFE Ls Rs
    Sampling rate               : 48.0 kHz
    Frame rate                  : 31.250 FPS (1536 SPF)
    Compression mode            : Lossy
    Stream size                 : 374 MiB (2%)
    Title                       : Español Latino [CinemaniaHDD]
    Language                    : Spanish
    Service kind                : Complete Main
    Default                     : Yes
    Forced                      : Yes

    Audio #2
    ID                          : 3
    ID in the original source m : 4352 (0x1100)
    Format                      : DTS XLL
    Format/Info                 : Digital Theater Systems
    Commercial name             : DTS-HD Master Audio
    Codec ID                    : A_DTS
    Duration                    : 1 h 56 min
    Bit rate mode               : Variable
    Bit rate                    : 3 504 kb/s
    Channel(s)                  : 6 channels
    Channel layout              : C L R Ls Rs LFE
    Sampling rate               : 48.0 kHz
    Frame rate                  : 93.750 FPS (512 SPF)
    Bit depth                   : 24 bits
    Compression mode            : Lossless
    Stream size                 : 2.86 GiB (12%)
    Title                       : Ingles [CinemaniaHDD]
    Language                    : English
    Default                     : No
    Forced                      : No
    Original source medium      : Blu-ray

    Text #1
    ID                          : 4
    ID in the original source m : 4609 (0x1201)
    Format                      : PGS
    Muxing mode                 : zlib
    Codec ID                    : S_HDMV/PGS
    Codec ID/Info               : Picture based subtitle format used on BDs/HD-DVDs
    Duration                    : 1 h 55 min
    Bit rate                    : 32.8 kb/s
    Count of elements           : 2764
    Stream size                 : 27.1 MiB (0%)
    Title                       : Español-PGS [CinemaniaHDD]
    Language                    : Spanish
    Default                     : No
    Forced                      : No
    Original source medium      : Blu-ray

    Text #2
    ID                          : 5
    Format                      : UTF-8
    Codec ID                    : S_TEXT/UTF8
    Codec ID/Info               : UTF-8 Plain Text
    Duration                    : 1 h 39 min
    Bit rate                    : 0 b/s
    Count of elements           : 22
    Stream size                 : 649 Bytes (0%)
    Title                       : Forzados-SRT [CinemaniaHDD]
    Language                    : Spanish
    Default                     : Yes
    Forced                      : Yes

    Text #3
    ID                          : 6
    Format                      : UTF-8
    Codec ID                    : S_TEXT/UTF8
    Codec ID/Info               : UTF-8 Plain Text
    Duration                    : 1 h 52 min
    Bit rate                    : 56 b/s
    Count of elements           : 1322
    Stream size                 : 46.7 KiB (0%)
    Title                       : Español-SRT [CinemaniaHDD]
    Language                    : Spanish
    Default                     : No
    Forced                      : No

    Menu
    00:00:00.000                : Capítulo 01
    00:08:18.664                : Capítulo 02
    00:16:52.011                : Capítulo 03
    00:26:18.577                : Capítulo 04
    00:33:19.998                : Capítulo 05
    00:41:48.506                : Capítulo 06
    00:49:33.971                : Capítulo 07
    00:59:10.547                : Capítulo 08
    01:05:17.330                : Capítulo 09
    01:14:38.891                : Capítulo 10
    01:19:59.795                : Capítulo 11
    01:24:19.054                : Capítulo 12
    01:34:19.654                : Capítulo 13
    01:39:28.963                : Capítulo 14
    01:47:29.443                : Capítulo 15
    01:52:36.666                : Capítulo 16

  • Peso: 23.6 GiB

Sinopsis

Descargar La Ballena (2022) REMUX 1080p Latino – CMHDD. Un solitario profesor de inglés con obesidad severa intenta reconectar con su hija adolescente en una última oportunidad de redención.

Ficha técnica

Video trailer de la película

Enlaces de descarga

Rip de Bluray

Descargar La Ballena (2022) REMUX 1080p Latino – CMHDD




Aportes de DPeliculasHDmega la pass es:dpeliculashdmega.org Aportes de CinemaniaHD la pass es:cinemaniahdd.com Aportes recientes:cinemaniahdd.net
Guardado en : Drama , Remux

Películas relacionadas

descargar La Ballena (2022) REMUX 1080p Latino – CMHDD Full 1080p 1080p gratis, La Ballena (2022) REMUX 1080p Latino – CMHDD Full 1080p mega 1 link, La Ballena (2022) REMUX 1080p Latino – CMHDD Full 1080p pelicula completa, descargar La Ballena (2022) REMUX 1080p Latino – CMHDD Full 1080p gratis en mega.

La Ballena (2022) REMUX 1080p Latino – CMHDD pelicula full hd, La Ballena (2022) REMUX 1080p Latino – CMHDD mega latino, La Ballena (2022) REMUX 1080p Latino – CMHDD 4k latino, La Ballena (2022) REMUX 1080p Latino – CMHDD pelicula completa, La Ballena (2022) REMUX 1080p Latino – CMHDD descargar gratis, descargar La Ballena (2022) REMUX 1080p Latino – CMHDD pelicula latino, La Ballena (2022) REMUX 1080p Latino – CMHDD 1 link mega, La Ballena (2022) REMUX 1080p Latino – CMHDD 1 link google drive, La Ballena (2022) REMUX 1080p Latino – CMHDD hd 1080p latino.
Comentarios 0