×

¿Problemas para descargar con Mozilla, EDGE? Deshabilita la opción "Abrir vinculos en una pestaña nueva" tal como lo muestra ésta imagen.

The Watcher (2022) Temporada 1 NF WEB-DL 1080p Latino

46 vistas

Información de The Watcher (2022) Temporada 1 NF WEB-DL 1080p Latino

Datos de la película

  • Calidad: WEBDL
  • Audio: Español Latino E-AC3 5.1 Netflix - Ingles E-AC3 5.1 Netflix
  • Subtitulos: Español Latino SRT- FORZADOS SRT
  • Resolución: 1920x1080p
  • Formato: MKV
  • Codec: H.264
  • Encoder: Melkor
  • Mediainfo: Clic para Mostrar Datos Ver
  • The Watcher S01E01 (2022) NF WEB-DL 1080p Latino.mkv
    Format                      : Matroska
    Format version              : Version 4
    File size                   : 1.50 GiB
    Duration                    : 48 min 31 s
    Overall bit rate mode       : Variable
    Overall bit rate            : 4 424 kb/s
    Movie name                  : The Watcher S01E01 CinemaniaHDD.Net
    Encoded date                : UTC 2022-10-17 05:41:58
    Writing application         : mkvmerge v56.1.0 ('My Friend') 64-bit
    Writing library             : libebml v1.4.2 + libmatroska v1.6.4
    Attachments                 : CINEMANIAHD.png

    Video
    ID                          : 1
    Format                      : AVC
    Format/Info                 : Advanced Video Codec
    Format profile              : Main@L4
    Format settings             : CABAC / 3 Ref Frames
    Format settings, CABAC      : Yes
    Format settings, Reference  : 3 frames
    Codec ID                    : V_MPEG4/ISO/AVC
    Duration                    : 48 min 31 s
    Bit rate mode               : Variable
    Bit rate                    : 3 014 kb/s
    Nominal bit rate            : 4 420 kb/s
    Maximum bit rate            : 6 630 kb/s
    Width                       : 1 920 pixels
    Height                      : 1 080 pixels
    Display aspect ratio        : 16:9
    Frame rate mode             : Constant
    Frame rate                  : 23.976 (24000/1001) FPS
    Color space                 : YUV
    Chroma subsampling          : 4:2:0
    Bit depth                   : 8 bits
    Scan type                   : Progressive
    Bits/(Pixel*Frame)          : 0.061
    Stream size                 : 1.02 GiB (68%)
    Title                       : WEB HD1080p [CinemaniaHDD]
    Writing library             : x264 core 148 r2727 7d026e8
    Encoding settings           : cabac=1 / ref=3 / deblock=1:0:0 / analyse=0x1:0x111 / me=umh / subme=10 / psy=1 / psy_rd=1.00:0.00 / mixed_ref=1 / me_range=24 / chroma_me=1 / trellis=2 / 8x8dct=0 / cqm=0 / deadzone=21,11 / fast_pskip=1 / chroma_qp_offset=-2 / threads=6 / lookahead_threads=1 / sliced_threads=0 / nr=0 / decimate=1 / interlaced=0 / bluray_compat=0 / stitchable=1 / constrained_intra=0 / bframes=2 / b_pyramid=0 / b_adapt=2 / b_bias=0 / direct=3 / weightb=1 / open_gop=0 / weightp=2 / keyint=250 / keyint_min=23 / scenecut=0 / intra_refresh=0 / rc_lookahead=48 / rc=2pass / mbtree=1 / bitrate=4420 / ratetol=1.0 / qcomp=0.50 / qpmin=6 / qpmax=51 / qpstep=4 / cplxblur=20.0 / qblur=0.5 / vbv_maxrate=6630 / vbv_bufsize=8840 / nal_hrd=vbr / filler=0 / ip_ratio=1.40 / aq=1:1.00
    Default                     : Yes
    Forced                      : No

    Audio #1
    ID                          : 2
    Format                      : E-AC-3
    Format/Info                 : Enhanced AC-3
    Commercial name             : Dolby Digital Plus
    Codec ID                    : A_EAC3
    Duration                    : 48 min 31 s
    Bit rate mode               : Constant
    Bit rate                    : 640 kb/s
    Channel(s)                  : 6 channels
    Channel layout              : L R C LFE Ls Rs
    Sampling rate               : 48.0 kHz
    Frame rate                  : 31.250 FPS (1536 SPF)
    Compression mode            : Lossy
    Stream size                 : 222 MiB (14%)
    Title                       : Español Latino [CinemaniaHDD]
    Language                    : Spanish
    Service kind                : Complete Main
    Default                     : Yes
    Forced                      : No

    Audio #2
    ID                          : 3
    Format                      : E-AC-3 JOC
    Format/Info                 : Enhanced AC-3 with Joint Object Coding
    Commercial name             : Dolby Digital Plus with Dolby Atmos
    Codec ID                    : A_EAC3
    Duration                    : 48 min 31 s
    Bit rate mode               : Constant
    Bit rate                    : 768 kb/s
    Channel(s)                  : 6 channels
    Channel layout              : L R C LFE Ls Rs
    Sampling rate               : 48.0 kHz
    Frame rate                  : 31.250 FPS (1536 SPF)
    Compression mode            : Lossy
    Stream size                 : 267 MiB (17%)
    Title                       : Ingles [CinemaniaHDD]
    Language                    : English
    Service kind                : Complete Main
    Default                     : No
    Forced                      : No
    Complexity index            : 16
    Number of dynamic objects   : 15
    Bed channel count           : 1 channel
    Bed channel configuration   : LFE

    Text #1
    ID                          : 4
    Format                      : UTF-8
    Codec ID                    : S_TEXT/UTF8
    Codec ID/Info               : UTF-8 Plain Text
    Duration                    : 46 min 51 s
    Bit rate                    : 0 b/s
    Count of elements           : 10
    Stream size                 : 257 Bytes (0%)
    Title                       : Forzados-SRT [CinemaniaHDD]
    Language                    : Spanish
    Default                     : Yes
    Forced                      : Yes

    Text #2
    ID                          : 5
    Format                      : UTF-8
    Codec ID                    : S_TEXT/UTF8
    Codec ID/Info               : UTF-8 Plain Text
    Duration                    : 46 min 51 s
    Bit rate                    : 61 b/s
    Count of elements           : 699
    Stream size                 : 21.1 KiB (0%)
    Title                       : Español-SRT [CinemaniaHDD]
    Language                    : Spanish
    Default                     : No
    Forced                      : No

    Text #3
    ID                          : 6
    Format                      : UTF-8
    Codec ID                    : S_TEXT/UTF8
    Codec ID/Info               : UTF-8 Plain Text
    Duration                    : 45 min 7 s
    Bit rate                    : 104 b/s
    Count of elements           : 782
    Stream size                 : 34.5 KiB (0%)
    Title                       : Ingles-SRT [CinemaniaHDD]
    Language                    : English
    Default                     : No
    Forced                      : No

  • Peso: 1.5 GiB Aprox C/U -- 8.77 GiB -- 7 Chapters

Sinopsis

Descargar The Watcher (2022) Temporada 1 NF WEB-DL 1080p Latino. Se suponía que era la casa de sus sueños, pero pronto se convierte en un infierno para la familia Brannock. Las siniestras cartas que reciben de alguien que se hace llamar «el Vigilante» son solo el principio. En seguida empiezan a salir a la luz los siniestros secretos del vecindario. Inspirada en la historia real de la tristemente célebre casa de Nueva Jersey.

Ficha técnica

Video trailer de la película

Enlaces de descarga

Rip de Bluray

Descargar The Watcher (2022) Temporada 1 NF WEB-DL 1080p Latino




Aportes de DPeliculasHDmega la pass es:dpeliculashdmega.org Aportes de CinemaniaHD la pass es:cinemaniahdd.com
Guardado en : Drama , Misterio , Netflix , Series

Películas relacionadas

descargar The Watcher (2022) Temporada 1 NF WEB-DL 1080p Latino WEBDL 1080p gratis, The Watcher (2022) Temporada 1 NF WEB-DL 1080p Latino WEBDL mega 1 link, The Watcher (2022) Temporada 1 NF WEB-DL 1080p Latino WEBDL serie completa, descargar The Watcher (2022) Temporada 1 NF WEB-DL 1080p Latino WEBDL gratis en mega.

The Watcher (2022) Temporada 1 NF WEB-DL 1080p Latino pelicula full hd, The Watcher (2022) Temporada 1 NF WEB-DL 1080p Latino mega latino, The Watcher (2022) Temporada 1 NF WEB-DL 1080p Latino 4k latino, The Watcher (2022) Temporada 1 NF WEB-DL 1080p Latino pelicula completa, The Watcher (2022) Temporada 1 NF WEB-DL 1080p Latino descargar gratis, descargar The Watcher (2022) Temporada 1 NF WEB-DL 1080p Latino pelicula latino, The Watcher (2022) Temporada 1 NF WEB-DL 1080p Latino 1 link mega, The Watcher (2022) Temporada 1 NF WEB-DL 1080p Latino 1 link google drive, The Watcher (2022) Temporada 1 NF WEB-DL 1080p Latino hd 1080p latino.
Comentarios 0