×

¿Problemas para descargar con Mozilla, EDGE? Deshabilita la opción "Abrir vinculos en una pestaña nueva" tal como lo muestra ésta imagen.

La Guerra de los Mundos (2005) REMUX 1080p Latino

652 vistas

Información de La Guerra de los Mundos (2005) REMUX 1080p Latino

Datos de la película

  • Calidad: Full 1080p
  • Audio: Español Latino AC3 5.1 BLURAY - Ingles DTS 5.1 BLURAY
  • Subtitulos: Español Latino PGS - Ingles PGS
  • Resolución: 1920x1080p
  • Formato: MKV
  • Codec: H.264
  • Encoder: CinefiloCool
  • Mediainfo: Clic para Mostrar Datos Ver
  • La Guerra De Los Mundos (2005) REMUX 1080p Latino-CMHDD.mkv
    Format                      : Matroska
    Format version              : Version 4
    File size                   : 26.6 GiB
    Duration                    : 1 h 56 min
    Overall bit rate mode       : Variable
    Overall bit rate            : 32.7 Mb/s
    Movie name                  : War Of The Worlds (2005) CinemaniaHDD.Net
    Encoded date                : UTC 2020-06-24 02:25:48
    Writing application         : mkvmerge v46.0.0 ('No Deeper Escape') 64-bit
    Writing library             : libebml v1.3.10 + libmatroska v1.5.2
    Attachments                 : CINEMANIAHD.png

    Video
    ID                          : 1
    Format                      : AVC
    Format/Info                 : Advanced Video Codec
    Format profile              : High@L4.1
    Format settings             : CABAC / 4 Ref Frames
    Format settings, CABAC      : Yes
    Format settings, Reference  : 4 frames
    Format settings, GOP        : M=3, N=12
    Codec ID                    : V_MPEG4/ISO/AVC
    Duration                    : 1 h 56 min
    Bit rate mode               : Variable
    Bit rate                    : 28.0 Mb/s
    Maximum bit rate            : 37.0 Mb/s
    Width                       : 1 920 pixels
    Height                      : 1 080 pixels
    Display aspect ratio        : 16:9
    Frame rate mode             : Constant
    Frame rate                  : 23.976 (24000/1001) FPS
    Color space                 : YUV
    Chroma subsampling          : 4:2:0
    Bit depth                   : 8 bits
    Scan type                   : Progressive
    Bits/(Pixel*Frame)          : 0.563
    Stream size                 : 22.8 GiB (86%)
    Title                       : REMUX 1080p [CinemaniaHDD]
    Language                    : English
    Default                     : Yes
    Forced                      : No
    Color range                 : Limited
    Color primaries             : BT.709
    Transfer characteristics    : BT.709
    Matrix coefficients         : BT.709

    Audio #1
    ID                          : 2
    Format                      : AC-3
    Format/Info                 : Audio Coding 3
    Commercial name             : Dolby Digital
    Codec ID                    : A_AC3
    Duration                    : 1 h 56 min
    Bit rate mode               : Constant
    Bit rate                    : 640 kb/s
    Channel(s)                  : 6 channels
    Channel layout              : L R C LFE Ls Rs
    Sampling rate               : 48.0 kHz
    Frame rate                  : 31.250 FPS (1536 SPF)
    Compression mode            : Lossy
    Stream size                 : 534 MiB (2%)
    Title                       : Español Latino [CinemaniaHDD]
    Language                    : Spanish
    Service kind                : Complete Main
    Default                     : Yes
    Forced                      : No

    Audio #2
    ID                          : 3
    Format                      : DTS XLL
    Format/Info                 : Digital Theater Systems
    Commercial name             : DTS-HD Master Audio
    Codec ID                    : A_DTS
    Duration                    : 1 h 56 min
    Bit rate mode               : Variable
    Bit rate                    : 4 083 kb/s
    Channel(s)                  : 6 channels
    Channel layout              : C L R Ls Rs LFE
    Sampling rate               : 48.0 kHz
    Frame rate                  : 93.750 FPS (512 SPF)
    Bit depth                   : 24 bits
    Compression mode            : Lossless
    Stream size                 : 3.32 GiB (12%)
    Title                       : Ingles [CinemaniaHDD]
    Language                    : English
    Default                     : No
    Forced                      : No

    Text #1
    ID                          : 4
    Format                      : PGS
    Muxing mode                 : zlib
    Codec ID                    : S_HDMV/PGS
    Codec ID/Info               : Picture based subtitle format used on BDs/HD-DVDs
    Duration                    : 1 h 54 min
    Bit rate                    : 24.3 kb/s
    Count of elements           : 2250
    Stream size                 : 19.9 MiB (0%)
    Title                       : Español-PGS [CinemaniaHDD]
    Language                    : Spanish
    Default                     : No
    Forced                      : No

    Text #2
    ID                          : 5
    Format                      : PGS
    Muxing mode                 : zlib
    Codec ID                    : S_HDMV/PGS
    Codec ID/Info               : Picture based subtitle format used on BDs/HD-DVDs
    Duration                    : 1 h 54 min
    Bit rate                    : 28.3 kb/s
    Count of elements           : 2240
    Stream size                 : 23.2 MiB (0%)
    Title                       : Ingles-PGS [CinemaniaHDD]
    Language                    : English
    Default                     : No
    Forced                      : No

    Text #3
    ID                          : 6
    Format                      : UTF-8
    Codec ID                    : S_TEXT/UTF8
    Codec ID/Info               : UTF-8 Plain Text
    Duration                    : 1 h 30 min
    Bit rate                    : 0 b/s
    Count of elements           : 10
    Stream size                 : 224 Bytes (0%)
    Title                       : Forzados-SRT [CinemaniaHDD]
    Language                    : Spanish
    Default                     : Yes
    Forced                      : No

    Text #4
    ID                          : 7
    Format                      : UTF-8
    Codec ID                    : S_TEXT/UTF8
    Codec ID/Info               : UTF-8 Plain Text
    Duration                    : 1 h 48 min
    Bit rate                    : 41 b/s
    Count of elements           : 997
    Stream size                 : 32.6 KiB (0%)
    Title                       : Español-SRT [CinemaniaHDD]
    Language                    : Spanish
    Default                     : No
    Forced                      : No

    Menu
    00:00:00.000                : en:00:00:00.000
    00:04:16.006                : en:00:04:16.006
    00:08:18.248                : en:00:08:18.248
    00:13:17.380                : en:00:13:17.380
    00:19:19.867                : en:00:19:19.867
    00:25:29.319                : en:00:25:29.319
    00:29:45.242                : en:00:29:45.242
    00:34:32.570                : en:00:34:32.570
    00:38:47.033                : en:00:38:47.033
    00:43:53.256                : en:00:43:53.256
    00:49:03.732                : en:00:49:03.732
    00:55:17.105                : en:00:55:17.105
    00:59:21.016                : en:00:59:21.016
    01:04:44.172                : en:01:04:44.172
    01:10:37.233                : en:01:10:37.233
    01:15:53.299                : en:01:15:53.299
    01:20:28.991                : en:01:20:28.991
    01:24:48.000                : en:01:24:48.000
    01:29:03.964                : en:01:29:03.964
    01:33:59.884                : en:01:33:59.884
    01:36:59.605                : en:01:36:59.605
    01:41:07.561                : en:01:41:07.561
    01:45:27.404                : en:01:45:27.404
    01:49:42.367                : en:01:49:42.367

  • Peso: 26.6 GiB

Sinopsis

Descargar La Guerra de los Mundos (2005) REMUX 1080p Latino. Basada en una popular novela de HG Wells, narra la historia de una invasión del planeta tierra por los marcianos, y la extraordinaria batalla de la humanidad por la supervivencia a través de los ojos de una familia americana. Ray Ferrier es un descargador de muelle, divorciado y padre nada modélico. Poco después de que su ex mujer y su nuevo marido se vayan después de dejar a Robbie, su hijo adolescente, y a su pequeña hija Rachel para una de sus contadas visitas, estalla una tremenda e inesperada tormenta eléctrica. Unos momentos después, en un cruce cerca de la casa, Ray es testigo de un acontecimiento que cambiará su vida y la de los suyos para siempre. Una enorme máquina de tres patas emerge del suelo y antes de que alguien pueda hacer algo, arrasa todo lo que está a su alcance. Un día como otro cualquiera acaba de convertirse en la fecha más extraordinaria de su vida: el primer ataque alienígena contra la Tierra.

RESUBIDO PARA VIP!!!

Ficha técnica

Video trailer de la película

Enlaces de descarga

Rip de Bluray

Descargar La Guerra de los Mundos (2005) REMUX 1080p Latino


Aportes de DPeliculasHDmega la pass es:dpeliculashdmega.org Aportes de CinemaniaHD la pass es:cinemaniahdd.com

Películas relacionadas

descargar La Guerra de los Mundos (2005) REMUX 1080p Latino Full 1080p 1080p gratis, La Guerra de los Mundos (2005) REMUX 1080p Latino Full 1080p mega 1 link, La Guerra de los Mundos (2005) REMUX 1080p Latino Full 1080p pelicula completa, descargar La Guerra de los Mundos (2005) REMUX 1080p Latino Full 1080p gratis en mega.

La Guerra de los Mundos (2005) REMUX 1080p Latino pelicula full hd, La Guerra de los Mundos (2005) REMUX 1080p Latino mega latino, La Guerra de los Mundos (2005) REMUX 1080p Latino 4k latino, La Guerra de los Mundos (2005) REMUX 1080p Latino pelicula completa, La Guerra de los Mundos (2005) REMUX 1080p Latino descargar gratis, descargar La Guerra de los Mundos (2005) REMUX 1080p Latino pelicula latino, La Guerra de los Mundos (2005) REMUX 1080p Latino 1 link mega, La Guerra de los Mundos (2005) REMUX 1080p Latino 1 link google drive, La Guerra de los Mundos (2005) REMUX 1080p Latino hd 1080p latino.
Comentarios 4
  • Bruno Zúñiga - 12 noviembre, 2020

    Cuando la quiero descargar me dice acceso denegado, podrias darme acceso por favor??

    • Dracarys - 12 noviembre, 2020

      es por que los links de drive están muertos

  • Bruno Zúñiga - 03 noviembre, 2020

    Hola, disculpa que quiere decir RUMUX?

    • Dracarys - 04 noviembre, 2020

      Es la calidad Intacta de Blu-ray