×

¿Problemas para descargar con Mozilla, EDGE? Deshabilita la opción "Abrir vinculos en una pestaña nueva" tal como lo muestra ésta imagen.

La Guerra de los Mundos (2005) 1080p Latino

649 vistas

Información de La Guerra de los Mundos (2005) 1080p Latino

Datos de la película

  • Calidad: 1080p
  • Audio: Español Latino AC3 5.1 BLURAY - Ingles AC3 5.1 BLURAY
  • Subtitulos: Español Latino SRT - Ingles SRT
  • Resolución: 1920x1040p
  • Formato: MKV
  • Codec: H.264
  • Encoder: CinefiloCool
  • Mediainfo: Clic para Mostrar Datos Ver
  • La Guerra De Los Mundos (2005) 1080p Latino-CMHDD.mkv
    Format                      : Matroska
    Format version              : Version 4
    File size                   : 4.14 GiB
    Duration                    : 1 h 56 min
    Overall bit rate            : 5 088 kb/s
    Movie name                  : War Of The Worlds (2005) CinemaniaHDD.Net
    Encoded date                : UTC 2020-06-24 05:29:31
    Writing application         : mkvmerge v46.0.0 ('No Deeper Escape') 64-bit
    Writing library             : libebml v1.3.10 + libmatroska v1.5.2
    Attachments                 : CINEMANIAHD.png

    Video
    ID                          : 1
    Format                      : AVC
    Format/Info                 : Advanced Video Codec
    Format profile              : High@L4.1
    Format settings             : CABAC / 4 Ref Frames
    Format settings, CABAC      : Yes
    Format settings, Reference  : 4 frames
    Codec ID                    : V_MPEG4/ISO/AVC
    Duration                    : 1 h 56 min
    Bit rate                    : 4 000 kb/s
    Width                       : 1 920 pixels
    Height                      : 1 040 pixels
    Display aspect ratio        : 1.85:1
    Frame rate mode             : Constant
    Frame rate                  : 23.976 (24000/1001) FPS
    Color space                 : YUV
    Chroma subsampling          : 4:2:0
    Bit depth                   : 8 bits
    Scan type                   : Progressive
    Bits/(Pixel*Frame)          : 0.084
    Stream size                 : 3.25 GiB (79%)
    Title                       : HD1080p [CinemaniaHDD]
    Writing library             : x264 core 157 r2935 545de2f
    Encoding settings           : cabac=1 / ref=4 / deblock=1:-2:-2 / analyse=0x3:0x133 / me=umh / subme=9 / psy=1 / psy_rd=1.00:0.25 / mixed_ref=1 / me_range=16 / chroma_me=1 / trellis=2 / 8x8dct=1 / cqm=0 / deadzone=6,6 / fast_pskip=1 / chroma_qp_offset=-4 / threads=24 / lookahead_threads=2 / sliced_threads=0 / nr=0 / decimate=0 / interlaced=0 / bluray_compat=0 / constrained_intra=0 / bframes=3 / b_pyramid=2 / b_adapt=2 / b_bias=0 / direct=3 / weightb=1 / open_gop=0 / weightp=2 / keyint=240 / keyint_min=24 / scenecut=40 / intra_refresh=0 / rc_lookahead=60 / rc=2pass / mbtree=1 / bitrate=4000 / ratetol=1.0 / qcomp=0.80 / qpmin=0 / qpmax=69 / qpstep=4 / cplxblur=20.0 / qblur=0.5 / vbv_maxrate=62500 / vbv_bufsize=78125 / nal_hrd=none / filler=0 / ip_ratio=1.10 / aq=1:0.50
    Default                     : Yes
    Forced                      : No
    Color range                 : Limited
    Color primaries             : BT.709
    Transfer characteristics    : BT.709
    Matrix coefficients         : BT.709

    Audio #1
    ID                          : 2
    Format                      : AC-3
    Format/Info                 : Audio Coding 3
    Commercial name             : Dolby Digital
    Codec ID                    : A_AC3
    Duration                    : 1 h 56 min
    Bit rate mode               : Constant
    Bit rate                    : 640 kb/s
    Channel(s)                  : 6 channels
    Channel layout              : L R C LFE Ls Rs
    Sampling rate               : 48.0 kHz
    Frame rate                  : 31.250 FPS (1536 SPF)
    Compression mode            : Lossy
    Delay relative to video     : -5 ms
    Stream size                 : 534 MiB (13%)
    Title                       : Español Latino [CinemaniaHDD]
    Language                    : Spanish
    Service kind                : Complete Main
    Default                     : Yes
    Forced                      : No

    Audio #2
    ID                          : 3
    Format                      : AC-3
    Format/Info                 : Audio Coding 3
    Commercial name             : Dolby Digital
    Codec ID                    : A_AC3
    Duration                    : 1 h 56 min
    Bit rate mode               : Constant
    Bit rate                    : 448 kb/s
    Channel(s)                  : 6 channels
    Channel layout              : L R C LFE Ls Rs
    Sampling rate               : 48.0 kHz
    Frame rate                  : 31.250 FPS (1536 SPF)
    Compression mode            : Lossy
    Delay relative to video     : -5 ms
    Stream size                 : 373 MiB (9%)
    Title                       : Ingles [CinemaniaHDD]
    Language                    : English
    Service kind                : Complete Main
    Default                     : No
    Forced                      : No

    Text #1
    ID                          : 4
    Format                      : UTF-8
    Codec ID                    : S_TEXT/UTF8
    Codec ID/Info               : UTF-8 Plain Text
    Duration                    : 1 h 30 min
    Bit rate                    : 0 b/s
    Count of elements           : 10
    Stream size                 : 224 Bytes (0%)
    Title                       : Forzados-SRT [CinemaniaHDD]
    Language                    : Spanish
    Default                     : Yes
    Forced                      : No

    Text #2
    ID                          : 5
    Format                      : UTF-8
    Codec ID                    : S_TEXT/UTF8
    Codec ID/Info               : UTF-8 Plain Text
    Duration                    : 1 h 48 min
    Bit rate                    : 41 b/s
    Count of elements           : 997
    Stream size                 : 32.6 KiB (0%)
    Title                       : Español-SRT [CinemaniaHDD]
    Language                    : Spanish
    Default                     : No
    Forced                      : No

    Text #3
    ID                          : 6
    Format                      : UTF-8
    Codec ID                    : S_TEXT/UTF8
    Codec ID/Info               : UTF-8 Plain Text
    Duration                    : 1 h 54 min
    Bit rate                    : 44 b/s
    Count of elements           : 1098
    Stream size                 : 37.0 KiB (0%)
    Title                       : Ingles-SRT [CinemaniaHDD]
    Language                    : English
    Default                     : No
    Forced                      : No

    Menu
    00:00:00.000                : en:00:00:00.000
    00:04:16.006                : en:00:04:16.006
    00:08:18.248                : en:00:08:18.248
    00:13:17.380                : en:00:13:17.380
    00:19:19.867                : en:00:19:19.867
    00:25:29.319                : en:00:25:29.319
    00:29:45.242                : en:00:29:45.242
    00:34:32.570                : en:00:34:32.570
    00:38:47.033                : en:00:38:47.033
    00:43:53.256                : en:00:43:53.256
    00:49:03.732                : en:00:49:03.732
    00:55:17.105                : en:00:55:17.105
    00:59:21.016                : en:00:59:21.016
    01:04:44.172                : en:01:04:44.172
    01:10:37.233                : en:01:10:37.233
    01:15:53.299                : en:01:15:53.299
    01:20:28.991                : en:01:20:28.991
    01:24:48.000                : en:01:24:48.000
    01:29:03.964                : en:01:29:03.964
    01:33:59.884                : en:01:33:59.884
    01:36:59.605                : en:01:36:59.605
    01:41:07.561                : en:01:41:07.561
    01:45:27.404                : en:01:45:27.404
    01:49:42.367                : en:01:49:42.367

  • Peso: 4.14 GiB

Sinopsis

Descargar La Guerra de los Mundos (2005) 1080p Latino. Basada en una popular novela de HG Wells, narra la historia de una invasión del planeta tierra por los marcianos, y la extraordinaria batalla de la humanidad por la supervivencia a través de los ojos de una familia americana. Ray Ferrier es un descargador de muelle, divorciado y padre nada modélico. Poco después de que su ex mujer y su nuevo marido se vayan después de dejar a Robbie, su hijo adolescente, y a su pequeña hija Rachel para una de sus contadas visitas, estalla una tremenda e inesperada tormenta eléctrica. Unos momentos después, en un cruce cerca de la casa, Ray es testigo de un acontecimiento que cambiará su vida y la de los suyos para siempre. Una enorme máquina de tres patas emerge del suelo y antes de que alguien pueda hacer algo, arrasa todo lo que está a su alcance. Un día como otro cualquiera acaba de convertirse en la fecha más extraordinaria de su vida: el primer ataque alienígena contra la Tierra.

RESUBIDO!!!

Ficha técnica

Video trailer de la película

Enlaces de descarga

Rip de Bluray

Descargar La Guerra de los Mundos (2005) 1080p Latino




Aportes de DPeliculasHDmega la pass es:dpeliculashdmega.org Aportes de CinemaniaHD la pass es:cinemaniahdd.com

Películas relacionadas

descargar La Guerra de los Mundos (2005) 1080p Latino 1080p 1080p gratis, La Guerra de los Mundos (2005) 1080p Latino 1080p mega 1 link, La Guerra de los Mundos (2005) 1080p Latino 1080p pelicula completa, descargar La Guerra de los Mundos (2005) 1080p Latino 1080p gratis en mega.

La Guerra de los Mundos (2005) 1080p Latino pelicula full hd, La Guerra de los Mundos (2005) 1080p Latino mega latino, La Guerra de los Mundos (2005) 1080p Latino 4k latino, La Guerra de los Mundos (2005) 1080p Latino pelicula completa, La Guerra de los Mundos (2005) 1080p Latino descargar gratis, descargar La Guerra de los Mundos (2005) 1080p Latino pelicula latino, La Guerra de los Mundos (2005) 1080p Latino 1 link mega, La Guerra de los Mundos (2005) 1080p Latino 1 link google drive, La Guerra de los Mundos (2005) 1080p Latino hd 1080p latino.
Comentarios 0