×

¿Problemas para descargar con Mozilla, EDGE? Deshabilita la opción "Abrir vinculos en una pestaña nueva" tal como lo muestra ésta imagen.

La Guerra de los Mundos (2005) 4K UHD HDR Latino

778 vistas

Información de La Guerra de los Mundos (2005) 4K UHD HDR Latino

Datos de la película

  • Calidad: 4K HDR
  • Audio: Español Latino AC3 5.1 BLURAY - Ingles AC3 5.1 BLURAY
  • Subtitulos: Español Latino PGS - Ingles PGS
  • Resolución: 3840x2160p
  • Formato: MKV
  • Codec: HEVC
  • Encoder: CinefiloCool
  • Mediainfo: Clic para Mostrar Datos Ver
  • La Guerra De Los Mundos (2005) UHD HDR Latino-CMHDD.mkv
    Format                      : Matroska
    Format version              : Version 4
    File size                   : 27.4 GiB
    Duration                    : 1 h 56 min
    Overall bit rate            : 33.7 Mb/s
    Movie name                  : War Of The Worlds (2005) CinemaniaHDD.Net
    Encoded date                : UTC 2020-06-24 03:15:30
    Writing application         : mkvmerge v46.0.0 ('No Deeper Escape') 64-bit
    Writing library             : libebml v1.3.10 + libmatroska v1.5.2
    Attachments                 : CINEMANIAHD.png

    Video
    ID                          : 1
    Format                      : HEVC
    Format/Info                 : High Efficiency Video Coding
    Format profile              : Main 10@L5.1@High
    HDR format                  : SMPTE ST 2086, HDR10 compatible
    Codec ID                    : V_MPEGH/ISO/HEVC
    Duration                    : 1 h 56 min
    Bit rate                    : 32.4 Mb/s
    Width                       : 3 840 pixels
    Height                      : 2 160 pixels
    Display aspect ratio        : 16:9
    Frame rate mode             : Constant
    Frame rate                  : 23.976 (24000/1001) FPS
    Color space                 : YUV
    Chroma subsampling          : 4:2:0 (Type 2)
    Bit depth                   : 10 bits
    Bits/(Pixel*Frame)          : 0.163
    Stream size                 : 26.4 GiB (96%)
    Title                       : 2160p HDR [Bluray]
    Writing library             : x265 3.3+21-6bb2d88029c2:[Windows][GCC 10.0.1][64 bit] 10bit
    Encoding settings           : cpuid=1111039 / frame-threads=6 / numa-pools=36 / wpp / no-pmode / no-pme / no-psnr / no-ssim / log-level=2 / input-csp=1 / input-res=3840x2160 / interlace=0 / total-frames=167635 / level-idc=51 / high-tier=1 / uhd-bd=0 / ref=4 / no-allow-non-conformance / repeat-headers / annexb / aud / hrd / info / hash=0 / no-temporal-layers / no-open-gop / min-keyint=23 / keyint=250 / gop-lookahead=0 / bframes=4 / b-adapt=2 / b-pyramid / bframe-bias=0 / rc-lookahead=25 / lookahead-slices=4 / scenecut=40 / hist-scenecut=0 / radl=0 / no-splice / no-intra-refresh / ctu=64 / min-cu-size=8 / rect / no-amp / max-tu-size=32 / tu-inter-depth=1 / tu-intra-depth=1 / limit-tu=0 / rdoq-level=2 / dynamic-rd=0.00 / no-ssim-rd / signhide / no-tskip / nr-intra=0 / nr-inter=0 / no-constrained-intra / strong-intra-smoothing / max-merge=3 / limit-refs=3 / limit-modes / me=3 / subme=3 / merange=57 / temporal-mvp / no-frame-dup / no-hme / weightp / no-weightb / no-analyze-src-pics / deblock=-3:-3 / no-sao / no-sao-non-deblock / rd=4 / selective-sao=0 / no-early-skip / rskip / no-fast-intra / no-tskip-fast / no-cu-lossless / no-b-intra / no-splitrd-skip / rdpenalty=0 / psy-rd=2.00 / psy-rdoq=1.00 / no-rd-refine / no-lossless / cbqpoffs=0 / crqpoffs=0 / rc=crf / crf=19.0 / qcomp=0.60 / qpstep=4 / stats-write=0 / stats-read=0 / vbv-maxrate=160000 / vbv-bufsize=160000 / vbv-init=0.9 / crf-max=0.0 / crf-min=0.0 / ipratio=1.40 / pbratio=1.30 / aq-mode=2 / aq-strength=1.00 / cutree / zone-count=0 / no-strict-cbr / qg-size=32 / no-rc-grain / qpmax=69 / qpmin=0 / no-const-vbv / sar=1 / overscan=0 / videoformat=5 / range=0 / colorprim=9 / transfer=16 / colormatrix=9 / chromaloc=1 / chromaloc-top=2 / chromaloc-bottom=2 / display-window=0 / master-display=G(13250,34500)B(7500,3000)R(34000,16000)WP(15635,16450)L(10000000,1) / cll=993,419 / min-luma=0 / max-luma=1023 / log2-max-poc-lsb=8 / vui-timing-info / vui-hrd-info / slices=1 / no-opt-qp-pps / no-opt-ref-list-length-pps / no-multi-pass-opt-rps / scenecut-bias=0.05 / hist-threshold=0.01 / no-opt-cu-delta-qp / no-aq-motion / hdr10 / hdr10-opt / no-dhdr10-opt / no-idr-recovery-sei / analysis-reuse-level=0 / analysis-save-reuse-level=0 / analysis-load-reuse-level=0 / scale-factor=0 / refine-intra=0 / refine-inter=0 / refine-mv=1 / refine-ctu-distortion=0 / no-limit-sao / ctu-info=0 / no-lowpass-dct / refine-analysis-type=0 / copy-pic=1 / max-ausize-factor=1.0 / no-dynamic-refine / no-single-sei / no-hevc-aq / no-svt / no-field / qp-adaptation-range=1.00 / no-scenecut-aware-qpconformance-window-offsets / right=0 / bottom=0 / decoder-max-rate=0
    Default                     : Yes
    Forced                      : No
    Color range                 : Limited
    Color primaries             : BT.2020
    Transfer characteristics    : PQ
    Matrix coefficients         : BT.2020 non-constant
    Mastering display color pri : Display P3
    Mastering display luminance : min: 0.0001 cd/m2, max: 1000 cd/m2
    Maximum Content Light Level : 993 cd/m2
    Maximum Frame-Average Light : 419 cd/m2

    Audio #1
    ID                          : 2
    Format                      : AC-3
    Format/Info                 : Audio Coding 3
    Commercial name             : Dolby Digital
    Codec ID                    : A_AC3
    Duration                    : 1 h 56 min
    Bit rate mode               : Constant
    Bit rate                    : 640 kb/s
    Channel(s)                  : 6 channels
    Channel layout              : L R C LFE Ls Rs
    Sampling rate               : 48.0 kHz
    Frame rate                  : 31.250 FPS (1536 SPF)
    Compression mode            : Lossy
    Stream size                 : 534 MiB (2%)
    Title                       : Español Latino [CinemaniaHDD]
    Language                    : Spanish
    Service kind                : Complete Main
    Default                     : Yes
    Forced                      : No

    Audio #2
    ID                          : 3
    Format                      : AC-3
    Format/Info                 : Audio Coding 3
    Commercial name             : Dolby Digital
    Codec ID                    : A_AC3
    Duration                    : 1 h 56 min
    Bit rate mode               : Constant
    Bit rate                    : 640 kb/s
    Channel(s)                  : 6 channels
    Channel layout              : L R C LFE Ls Rs
    Sampling rate               : 48.0 kHz
    Frame rate                  : 31.250 FPS (1536 SPF)
    Compression mode            : Lossy
    Stream size                 : 533 MiB (2%)
    Title                       : Ingles [CinemaniaHDD]
    Language                    : English
    Service kind                : Complete Main
    Default                     : No
    Forced                      : No

    Text #1
    ID                          : 4
    Format                      : PGS
    Muxing mode                 : zlib
    Codec ID                    : S_HDMV/PGS
    Codec ID/Info               : Picture based subtitle format used on BDs/HD-DVDs
    Duration                    : 1 h 49 min
    Bit rate                    : 24.4 kb/s
    Count of elements           : 2144
    Stream size                 : 19.0 MiB (0%)
    Title                       : Sub_Esp [PGS]
    Language                    : Spanish
    Default                     : No
    Forced                      : No

    Text #2
    ID                          : 5
    Format                      : PGS
    Muxing mode                 : zlib
    Codec ID                    : S_HDMV/PGS
    Codec ID/Info               : Picture based subtitle format used on BDs/HD-DVDs
    Duration                    : 1 h 48 min
    Bit rate                    : 29.4 kb/s
    Count of elements           : 2238
    Stream size                 : 22.8 MiB (0%)
    Title                       : Sub_Eng [PGS]
    Language                    : English
    Default                     : No
    Forced                      : No

    Text #3
    ID                          : 6
    Format                      : UTF-8
    Codec ID                    : S_TEXT/UTF8
    Codec ID/Info               : UTF-8 Plain Text
    Duration                    : 1 h 30 min
    Bit rate                    : 0 b/s
    Count of elements           : 10
    Stream size                 : 224 Bytes (0%)
    Title                       : Sub_Forzados
    Language                    : Spanish
    Default                     : Yes
    Forced                      : No

    Text #4
    ID                          : 7
    Format                      : UTF-8
    Codec ID                    : S_TEXT/UTF8
    Codec ID/Info               : UTF-8 Plain Text
    Duration                    : 1 h 48 min
    Bit rate                    : 41 b/s
    Count of elements           : 997
    Stream size                 : 32.6 KiB (0%)
    Title                       : Sub_Esp
    Language                    : Spanish
    Default                     : No
    Forced                      : No

    Menu
    00:00:00.000                : en:Chapter 01
    00:04:16.006                : en:Chapter 02
    00:08:18.248                : en:Chapter 03
    00:13:17.380                : en:Chapter 04
    00:19:19.867                : en:Chapter 05
    00:25:29.319                : en:Chapter 06
    00:29:45.242                : en:Chapter 07
    00:34:32.570                : en:Chapter 08
    00:38:47.033                : en:Chapter 09
    00:43:53.256                : en:Chapter 10
    00:49:03.732                : en:Chapter 11
    00:55:17.105                : en:Chapter 12
    00:59:21.016                : en:Chapter 13
    01:04:44.172                : en:Chapter 14
    01:10:37.233                : en:Chapter 15
    01:15:53.299                : en:Chapter 16
    01:20:28.991                : en:Chapter 17
    01:24:48.000                : en:Chapter 18
    01:29:03.964                : en:Chapter 19
    01:33:59.884                : en:Chapter 20
    01:36:59.605                : en:Chapter 21
    01:41:07.561                : en:Chapter 22
    01:45:27.404                : en:Chapter 23
    01:49:42.034                : en:Chapter 24

  • Peso: 27.4 GiB

Sinopsis

Descargar La Guerra de los Mundos (2005) 4K UHD HDR Latino. Basada en una popular novela de HG Wells, narra la historia de una invasión del planeta tierra por los marcianos, y la extraordinaria batalla de la humanidad por la supervivencia a través de los ojos de una familia americana. Ray Ferrier es un descargador de muelle, divorciado y padre nada modélico. Poco después de que su ex mujer y su nuevo marido se vayan después de dejar a Robbie, su hijo adolescente, y a su pequeña hija Rachel para una de sus contadas visitas, estalla una tremenda e inesperada tormenta eléctrica. Unos momentos después, en un cruce cerca de la casa, Ray es testigo de un acontecimiento que cambiará su vida y la de los suyos para siempre. Una enorme máquina de tres patas emerge del suelo y antes de que alguien pueda hacer algo, arrasa todo lo que está a su alcance. Un día como otro cualquiera acaba de convertirse en la fecha más extraordinaria de su vida: el primer ataque alienígena contra la Tierra.

Ficha técnica

Video trailer de la película

Enlaces de descarga

Rip de Bluray

Descargar La Guerra de los Mundos (2005) 4K UHD HDR Latino




Aportes de DPeliculasHDmega la pass es:dpeliculashdmega.org Aportes de CinemaniaHD la pass es:cinemaniahdd.com

Películas relacionadas

descargar La Guerra de los Mundos (2005) 4K UHD HDR Latino 4K HDR 1080p gratis, La Guerra de los Mundos (2005) 4K UHD HDR Latino 4K HDR mega 1 link, La Guerra de los Mundos (2005) 4K UHD HDR Latino 4K HDR pelicula completa, descargar La Guerra de los Mundos (2005) 4K UHD HDR Latino 4K HDR gratis en mega.

La Guerra de los Mundos (2005) 4K UHD HDR Latino pelicula full hd, La Guerra de los Mundos (2005) 4K UHD HDR Latino mega latino, La Guerra de los Mundos (2005) 4K UHD HDR Latino 4k latino, La Guerra de los Mundos (2005) 4K UHD HDR Latino pelicula completa, La Guerra de los Mundos (2005) 4K UHD HDR Latino descargar gratis, descargar La Guerra de los Mundos (2005) 4K UHD HDR Latino pelicula latino, La Guerra de los Mundos (2005) 4K UHD HDR Latino 1 link mega, La Guerra de los Mundos (2005) 4K UHD HDR Latino 1 link google drive, La Guerra de los Mundos (2005) 4K UHD HDR Latino hd 1080p latino.
Comentarios 0