×

¿Problemas para descargar con Mozilla, EDGE? Deshabilita la opción "Abrir vinculos en una pestaña nueva" tal como lo muestra ésta imagen.

The Wandering Earth (2019) REMUX 1080p Latino

1.770 vistas

Información de The Wandering Earth (2019) REMUX 1080p Latino

Datos de la película

  • Calidad: Full 1080p
  • Audio: Se especifica abajo de la Sinopsis
  • Subtitulos: Español Latino SRT- FORZADOS SRT
  • Resolución: 1920x1080
  • Formato: MKV
  • Codec: H.264
  • Encoder: cinemaniahdd
  • Mediainfo: Clic para Mostrar Datos Ver
  • The Wandering Earth (2019) REMUX 1080p Latino.mkv
    Format                      : Matroska
    Format version              : Version 4
    File size                   : 33.8 GiB
    Duration                    : 2 h 5 min
    Overall bit rate mode       : Variable
    Overall bit rate            : 38.7 Mb/s
    Movie name                  :  La Tierra errante (2019) - CinemaniaHDD.Net
    Encoded date                : UTC 2019-10-30 22:57:30
    Writing application         : mkvmerge v38.0.0 ('The Silent Type') 64-bit
    Writing library             : libebml v1.3.9 + libmatroska v1.5.2

    Video
    ID                          : 1
    Format                      : AVC
    Format/Info                 : Advanced Video Codec
    Format profile              : High@L4.1
    Format settings             : CABAC / 4 Ref Frames
    Format settings, CABAC      : Yes
    Format settings, ReFrames   : 4 frames
    Codec ID                    : V_MPEG4/ISO/AVC
    Duration                    : 2 h 5 min
    Bit rate mode               : Variable
    Bit rate                    : 32.5 Mb/s
    Maximum bit rate            : 35.0 Mb/s
    Width                       : 1 920 pixels
    Height                      : 1 080 pixels
    Display aspect ratio        : 16:9
    Frame rate mode             : Constant
    Frame rate                  : 24.000 FPS
    Color space                 : YUV
    Chroma subsampling          : 4:2:0
    Bit depth                   : 8 bits
    Scan type                   : Progressive
    Bits/(Pixel*Frame)          : 0.654
    Stream size                 : 28.4 GiB (84%)
    Title                       : CinemaniaHDD
    Default                     : Yes
    Forced                      : No

    Audio #1
    ID                          : 2
    Format                      : AC-3
    Format/Info                 : Audio Coding 3
    Commercial name             : Dolby Digital
    Codec ID                    : A_AC3
    Duration                    : 2 h 5 min
    Bit rate mode               : Constant
    Bit rate                    : 640 kb/s
    Channel(s)                  : 6 channels
    Channel layout              : L R C LFE Ls Rs
    Sampling rate               : 48.0 kHz
    Frame rate                  : 31.250 FPS (1536 SPF)
    Bit depth                   : 16 bits
    Compression mode            : Lossy
    Stream size                 : 573 MiB (2%)
    Title                       : Español Latino [CinemaniaHDD]
    Language                    : Spanish
    Service kind                : Complete Main
    Default                     : Yes
    Forced                      : No

    Audio #2
    ID                          : 3
    Format                      : AC-3
    Format/Info                 : Audio Coding 3
    Commercial name             : Dolby Digital
    Codec ID                    : A_AC3
    Duration                    : 2 h 5 min
    Bit rate mode               : Constant
    Bit rate                    : 640 kb/s
    Channel(s)                  : 6 channels
    Channel layout              : L R C LFE Ls Rs
    Sampling rate               : 48.0 kHz
    Frame rate                  : 31.250 FPS (1536 SPF)
    Bit depth                   : 16 bits
    Compression mode            : Lossy
    Stream size                 : 573 MiB (2%)
    Title                       : Ingles [CinemaniaHDD]
    Service kind                : Complete Main
    Default                     : No
    Forced                      : No

    Audio #3
    ID                          : 4
    Format                      : MLP FBA 16-ch
    Format/Info                 : Meridian Lossless Packing FBA with 16-channel presentation
    Commercial name             : Dolby TrueHD with Dolby Atmos
    Codec ID                    : A_TRUEHD
    Duration                    : 2 h 5 min
    Bit rate mode               : Variable
    Bit rate                    : 4 770 kb/s
    Maximum bit rate            : 8 064 kb/s
    Channel(s)                  : 8 channels
    Channel layout              : L R C LFE Ls Rs Lb Rb
    Sampling rate               : 48.0 kHz
    Frame rate                  : 1 200.000 FPS (40 SPF)
    Compression mode            : Lossless
    Stream size                 : 4.17 GiB (12%)
    Title                       : Chino [CinemaniaHDD]
    Language                    : Chinese
    Default                     : No
    Forced                      : No
    Number of dynamic objects   : 11
    Bed channel count           : 1 channel
    Bed channel configuration   : LFE

    Text #1
    ID                          : 5
    Format                      : UTF-8
    Codec ID                    : S_TEXT/UTF8
    Codec ID/Info               : UTF-8 Plain Text
    Duration                    : 1 h 59 min
    Bit rate                    : 10 b/s
    Count of elements           : 292
    Stream size                 : 9.43 KiB (0%)
    Title                       : Forzados [CinemaniaHDD]
    Language                    : Spanish
    Default                     : Yes
    Forced                      : Yes

    Text #2
    ID                          : 6
    Format                      : UTF-8
    Codec ID                    : S_TEXT/UTF8
    Codec ID/Info               : UTF-8 Plain Text
    Duration                    : 1 h 59 min
    Bit rate                    : 64 b/s
    Count of elements           : 1788
    Stream size                 : 56.2 KiB (0%)
    Title                       : Español Latino [CinemaniaHDD]
    Default                     : No
    Forced                      : No

    Text #3
    ID                          : 7
    Format                      : PGS
    Muxing mode                 : zlib
    Codec ID                    : S_HDMV/PGS
    Codec ID/Info               : Picture based subtitle format used on BDs/HD-DVDs
    Duration                    : 2 h 3 min
    Bit rate                    : 14.7 kb/s
    Count of elements           : 2802
    Stream size                 : 13.1 MiB (0%)
    Title                       : Chino [CinemaniaHDD]
    Language                    : Chinese
    Default                     : No
    Forced                      : No

    Text #4
    ID                          : 8
    Format                      : PGS
    Muxing mode                 : zlib
    Codec ID                    : S_HDMV/PGS
    Codec ID/Info               : Picture based subtitle format used on BDs/HD-DVDs
    Duration                    : 1 h 57 min
    Bit rate                    : 35.0 kb/s
    Count of elements           : 2711
    Stream size                 : 29.5 MiB (0%)
    Title                       : Ingles [CinemaniaHDD]
    Language                    : English
    Default                     : No
    Forced                      : No

    Menu
    00:00:00.000                : :Chapter 01
    00:09:02.750                : :Chapter 02
    00:22:19.291                : :Chapter 03
    00:32:36.458                : :Chapter 04
    00:41:24.708                : :Chapter 05
    00:50:44.208                : :Chapter 06
    00:58:43.375                : :Chapter 07
    01:09:27.666                : :Chapter 08
    01:20:09.666                : :Chapter 09
    01:34:25.333                : :Chapter 10
    01:45:38.625                : :Chapter 11
    01:55:38.625                : :Chapter 12

     

  • Peso: 33.8 GiB

Sinopsis

En un futuro lejano, cuando el sol comienza a perder su energía, un grupo de astronautas se propone encontrar un nuevo planeta en el que pueda habitar la raza humana.

Español Latino AC3 5.1 – Ingles AC3 5.1 – Chino TRUEHD 7.1

Ficha técnica

Video trailer de la película

Enlaces de descarga

Rip de Bluray

Descargar The Wandering Earth (2019) REMUX 1080p Latino




Aportes de DPeliculasHDmega la pass es:dpeliculashdmega.org Aportes de CinemaniaHD la pass es:cinemaniahdd.com
Guardado en : Acción , Ciencia ficción , Drama , Remux

Películas relacionadas

  • Ajin: Semi-Humano (2017) AMZN WEB-DL 1080p Latino

    Ajin: Semi-Humano (2017) AMZN WEB-DL 1080p Latino

    2017
    Ajin: Semi-Humano (2017) AMZN WEB-DL 1080p Latino

    1h 50m 2017

    Descargar Ajin: Semi-Humano (2017) AMZN WEB-DL 1080p Latino. En el manga original, aparece una persona...

    Director: Toru Yamamoto

    Género: Acción

    Actores: Yuki Yamada

  • Ajin: Semi-Humano (2017) REMUX 1080p Latino

    Ajin: Semi-Humano (2017) REMUX 1080p Latino

    2017
    Ajin: Semi-Humano (2017) REMUX 1080p Latino

    1h 50m 2017

    Descargar Ajin: Semi-Humano (2017) REMUX 1080p Latino. En el manga original, aparece una persona inmortal...

    Director: Toru Yamamoto

    Género: Acción

    Actores: Yuki Yamada

  • Zola (2020) REMUX 1080p Latino

    Zola (2020) REMUX 1080p Latino

    2020
    Zola (2020) REMUX 1080p Latino

    1h 26m 2020

    Descargar Zola (2020) REMUX 1080p Latino. Una camarera accede a acompañar a una bailarina exótica,...

    Director: Sheri Davani

    Género: Comedia

    Actores: Ts Madison

descargar The Wandering Earth (2019) REMUX 1080p Latino Full 1080p 1080p gratis, The Wandering Earth (2019) REMUX 1080p Latino Full 1080p mega 1 link, The Wandering Earth (2019) REMUX 1080p Latino Full 1080p pelicula completa, descargar The Wandering Earth (2019) REMUX 1080p Latino Full 1080p gratis en mega.

The Wandering Earth (2019) REMUX 1080p Latino pelicula full hd, The Wandering Earth (2019) REMUX 1080p Latino mega latino, The Wandering Earth (2019) REMUX 1080p Latino 4k latino, The Wandering Earth (2019) REMUX 1080p Latino pelicula completa, The Wandering Earth (2019) REMUX 1080p Latino descargar gratis, descargar The Wandering Earth (2019) REMUX 1080p Latino pelicula latino, The Wandering Earth (2019) REMUX 1080p Latino 1 link mega, The Wandering Earth (2019) REMUX 1080p Latino 1 link google drive, The Wandering Earth (2019) REMUX 1080p Latino hd 1080p latino.
Comentarios 0