×

¿Problemas para descargar con Mozilla, EDGE? Deshabilita la opción "Abrir vinculos en una pestaña nueva" tal como lo muestra ésta imagen.

The Walking Dead: World Beyond (2021) Segunda Temporada AMZN WEB-DL 1080p Latino

437 vistas

Información de The Walking Dead: World Beyond (2021) Segunda Temporada AMZN WEB-DL 1080p Latino

Datos de la película

  • Calidad: 1080p
  • Audio: Español Latino AC3 5.1 WEB-DL - Ingles AC3 5.1 WEB-DL
  • Subtitulos: Español Latino SRT- FORZADOS SRT
  • Resolución: 1920x1080
  • Formato: MKV
  • Codec: H.264
  • Encoder: cinemaniahdd
  • Mediainfo: Clic para Mostrar Datos Ver
  • The Walking Dead World Beyond T02E03 AMZN WEB-DL 1080p Latino [CNMNHDD].mkv
    Format                      : Matroska
    Format version              : Version 4
    File size                   : 3.45 GiB
    Duration                    : 43 min 15 s
    Overall bit rate            : 11.4 Mb/s
    Movie name                  : The Walking Dead World Beyond S02E03 - Exit Wounds [1080p] [CNMNHDD]
    Encoded date                : UTC 2022-06-26 18:28:27
    Writing application         : mkvmerge v56.1.0 ('My Friend') 64-bit
    Writing library             : libebml v1.4.2 + libmatroska v1.6.4

    Video
    ID                          : 1
    Format                      : AVC
    Format/Info                 : Advanced Video Codec
    Format profile              : High@L4
    Format settings             : CABAC / 4 Ref Frames
    Format settings, CABAC      : Yes
    Format settings, Reference  : 4 frames
    Codec ID                    : V_MPEG4/ISO/AVC
    Duration                    : 43 min 15 s
    Bit rate mode               : Constant
    Bit rate                    : 9 497 kb/s
    Nominal bit rate            : 10 000 kb/s
    Width                       : 1 920 pixels
    Height                      : 1 080 pixels
    Display aspect ratio        : 16:9
    Frame rate mode             : Constant
    Frame rate                  : 24.000 FPS
    Color space                 : YUV
    Chroma subsampling          : 4:2:0
    Bit depth                   : 8 bits
    Scan type                   : Progressive
    Bits/(Pixel*Frame)          : 0.191
    Stream size                 : 2.87 GiB (83%)
    Title                       : CinemaniaHDD
    Default                     : Yes
    Forced                      : No
    Color range                 : Limited
    Color primaries             : BT.709
    Transfer characteristics    : BT.709
    Matrix coefficients         : BT.709

    Audio #1
    ID                          : 2
    Format                      : AC-3
    Format/Info                 : Audio Coding 3
    Commercial name             : Dolby Digital
    Codec ID                    : A_AC3
    Duration                    : 43 min 15 s
    Bit rate mode               : Constant
    Bit rate                    : 640 kb/s
    Channel(s)                  : 6 channels
    Channel layout              : L R C LFE Ls Rs
    Sampling rate               : 48.0 kHz
    Frame rate                  : 31.250 FPS (1536 SPF)
    Compression mode            : Lossy
    Stream size                 : 198 MiB (6%)
    Title                       : Español latino [CinemaniaHDD]
    Language                    : Spanish
    Service kind                : Complete Main
    Default                     : Yes
    Forced                      : No

    Audio #2
    ID                          : 3
    Format                      : E-AC-3
    Format/Info                 : Enhanced AC-3
    Commercial name             : Dolby Digital Plus
    Codec ID                    : A_EAC3
    Duration                    : 43 min 15 s
    Bit rate mode               : Constant
    Bit rate                    : 640 kb/s
    Channel(s)                  : 6 channels
    Channel layout              : L R C LFE Ls Rs
    Sampling rate               : 48.0 kHz
    Frame rate                  : 31.250 FPS (1536 SPF)
    Compression mode            : Lossy
    Stream size                 : 198 MiB (6%)
    Title                       : Español latino / E-AC3 [CinemaniaHDD]
    Language                    : Spanish
    Service kind                : Complete Main
    Default                     : No
    Forced                      : No

    Audio #3
    ID                          : 4
    Format                      : E-AC-3
    Format/Info                 : Enhanced AC-3
    Commercial name             : Dolby Digital Plus
    Codec ID                    : A_EAC3
    Duration                    : 43 min 15 s
    Bit rate mode               : Constant
    Bit rate                    : 640 kb/s
    Channel(s)                  : 6 channels
    Channel layout              : L R C LFE Ls Rs
    Sampling rate               : 48.0 kHz
    Frame rate                  : 31.250 FPS (1536 SPF)
    Compression mode            : Lossy
    Stream size                 : 198 MiB (6%)
    Title                       : Inglés [CinemaniaHDD]
    Language                    : English
    Service kind                : Complete Main
    Default                     : No
    Forced                      : No

    Text #1
    ID                          : 5
    Format                      : UTF-8
    Codec ID                    : S_TEXT/UTF8
    Codec ID/Info               : UTF-8 Plain Text
    Duration                    : 22 min 10 s
    Bit rate                    : 0 b/s
    Count of elements           : 5
    Stream size                 : 93.0 Bytes (0%)
    Title                       : Forzados [CinemaniaHDD]
    Language                    : Spanish
    Default                     : No
    Forced                      : Yes

    Text #2
    ID                          : 6
    Format                      : UTF-8
    Codec ID                    : S_TEXT/UTF8
    Codec ID/Info               : UTF-8 Plain Text
    Duration                    : 41 min 53 s
    Bit rate                    : 60 b/s
    Count of elements           : 489
    Stream size                 : 18.5 KiB (0%)
    Title                       : Español latino [CinemaniaHDD]
    Language                    : Spanish
    Default                     : No
    Forced                      : No

    Text #3
    ID                          : 7
    Format                      : UTF-8
    Codec ID                    : S_TEXT/UTF8
    Codec ID/Info               : UTF-8 Plain Text
    Duration                    : 41 min 53 s
    Bit rate                    : 56 b/s
    Count of elements           : 531
    Stream size                 : 17.3 KiB (0%)
    Title                       : Inglés [CinemaniaHDD]
    Language                    : English
    Default                     : No
    Forced                      : No

    Menu
    00:00:00.000                : Previously On
    00:00:32.000                : Scene 2
    00:01:24.000                : Title Sequence
    00:01:34.000                : Scene 4
    00:10:16.000                : Scene 5
    00:19:44.000                : Scene 6
    00:24:03.000                : Scene 7
    00:30:06.000                : Scene 8
    00:36:41.000                : Scene 9
    00:42:08.000                : End Credits

     

     

  • Peso: 3.45 GiB Aprox ---- 41 GiB in 10 Chapters.

Sinopsis

La serie, ambientada en Nebraska diez años después del inicio del apocalipsis zombi, presenta a dos jóvenes protagonistas femeninas y se centra en «la primera generación de jóvenes en alcanzar la mayoría de edad en medio del apocalipsis sin que tengan conocimiento de cómo era el mundo antes de la aparición de los caminantes. Algunos se convertirán en héroes. Algunos se convertirán en villanos. Al final, todos ellos cambiarán para siempre. Adultos y cimentados en sus identidades, tanto buenas como malas».

Actualizado a : Español Latino 5.1 

Ficha técnica

Video trailer de la película

Enlaces de descarga

Rip de Bluray

Descargar The Walking Dead: World Beyond (2021) Segunda Temporada AMZN WEB-DL 1080p Latino




Aportes de DPeliculasHDmega la pass es:dpeliculashdmega.org Aportes de CinemaniaHD la pass es:cinemaniahdd.com
Guardado en : Drama , Misterio , Sci-Fi & Fantasy , Series

Películas relacionadas

  • Cruzando la línea (2021) HD 1080p Latino

    Cruzando la línea (2021) HD 1080p Latino

    2021
    Cruzando la línea (2021) HD 1080p Latino

    1h 31m 2021

    Descargar Cruzando la línea (2021) HD 1080p Latino. Un trabajador social asignado al cuidado de la hija...

    Director: Michele Civetta

    Género: Acción

    Actores: Zach Avery

  • Cruzando la línea (2021) REMUX 1080p Latino

    Cruzando la línea (2021) REMUX 1080p Latino

    2021
    Cruzando la línea (2021) REMUX 1080p Latino

    1h 31m 2021

    Descargar Cruzando la línea (2021) REMUX 1080p Latino. Un trabajador social asignado al cuidado de la...

    Director: Michele Civetta

    Género: Acción

    Actores: Zach Avery

  • Casualties of War (1989) REMUX 1080p Latino – CMHDD

    Casualties of War (1989) REMUX 1080p Latino – CMHDD

    1989
    Casualties of War (1989) REMUX 1080p Latino – CMHDD

    1h 53m 1989

    Durante la guerra de Vietnam, unos soldados americanos secuestran, violan y asesinan a una joven campesina...

    Director: Michael Stevenson

    Género: Bélica

    Actores: Wendell Pierce

The Walking Dead: World Beyond (2021) Segunda Temporada AMZN WEB-DL 1080p Latino pelicula full hd, The Walking Dead: World Beyond (2021) Segunda Temporada AMZN WEB-DL 1080p Latino mega latino, The Walking Dead: World Beyond (2021) Segunda Temporada AMZN WEB-DL 1080p Latino 4k latino, The Walking Dead: World Beyond (2021) Segunda Temporada AMZN WEB-DL 1080p Latino pelicula completa, The Walking Dead: World Beyond (2021) Segunda Temporada AMZN WEB-DL 1080p Latino descargar gratis, descargar The Walking Dead: World Beyond (2021) Segunda Temporada AMZN WEB-DL 1080p Latino pelicula latino, The Walking Dead: World Beyond (2021) Segunda Temporada AMZN WEB-DL 1080p Latino 1 link mega, The Walking Dead: World Beyond (2021) Segunda Temporada AMZN WEB-DL 1080p Latino 1 link google drive, The Walking Dead: World Beyond (2021) Segunda Temporada AMZN WEB-DL 1080p Latino hd 1080p latino.
Comentarios 0