The Walking Dead: World Beyond (2021) Temporada 2 AMZN WEB-DL 1080p Latino

25 vistas
1 estrella2 estrellas3 estrellas4 estrellas5 estrellas (2 votos, promedio: 5,00 de 5)
Cargando...

Información de The Walking Dead: World Beyond (2021) Temporada 2 AMZN WEB-DL 1080p Latino

Datos de la película

  • Calidad: 1080p
  • Audio: Español Latino AC3 2.0 WEB-DL - Ingles AC3 5.1 WEB-DL
  • Subtitulos: Español Latino SRT- FORZADOS SRT
  • Resolución: 1920x1080
  • Formato: MKV
  • Codec: H.264
  • Encoder: cinemaniahdd
  • Mediainfo: Clic para Mostrar Datos Ver
  • The Walking Dead World Beyond T02E01 AMZN WEB-DL 1080p Latino [CNMNHDD].mkv
    Format                      : Matroska
    Format version              : Version 4
    File size                   : 4.19 GiB
    Duration                    : 47 min 19 s
    Overall bit rate            : 12.7 Mb/s
    Movie name                  : The Walking Dead World Beyond T02E01 - CinemaniaHDD.Net
    Encoded date                : UTC 2021-10-05 02:02:41
    Writing application         : mkvmerge v56.1.0 ('My Friend') 64-bit
    Writing library             : libebml v1.4.2 + libmatroska v1.6.4

    Video
    ID                          : 1
    Format                      : AVC
    Format/Info                 : Advanced Video Codec
    Format profile              : High@L4
    Format settings             : CABAC / 4 Ref Frames
    Format settings, CABAC      : Yes
    Format settings, Reference  : 4 frames
    Codec ID                    : V_MPEG4/ISO/AVC
    Duration                    : 47 min 19 s
    Bit rate                    : 11.7 Mb/s
    Width                       : 1 920 pixels
    Height                      : 1 080 pixels
    Display aspect ratio        : 16:9
    Frame rate mode             : Constant
    Frame rate                  : 24.000 FPS
    Color space                 : YUV
    Chroma subsampling          : 4:2:0
    Bit depth                   : 8 bits
    Scan type                   : Progressive
    Bits/(Pixel*Frame)          : 0.234
    Stream size                 : 3.85 GiB (92%)
    Title                       : CinemaniaHDD
    Default                     : Yes
    Forced                      : No
    Color range                 : Limited
    Color primaries             : BT.709
    Transfer characteristics    : BT.709
    Matrix coefficients         : BT.709

    Audio #1
    ID                          : 2
    Format                      : AC-3
    Format/Info                 : Audio Coding 3
    Commercial name             : Dolby Digital
    Codec ID                    : A_AC3
    Duration                    : 47 min 18 s
    Bit rate mode               : Constant
    Bit rate                    : 384 kb/s
    Channel(s)                  : 2 channels
    Channel layout              : L R
    Sampling rate               : 48.0 kHz
    Frame rate                  : 31.250 FPS (1536 SPF)
    Compression mode            : Lossy
    Stream size                 : 130 MiB (3%)
    Title                       : Español latino [CinemaniaHDD]
    Language                    : Spanish
    Service kind                : Complete Main
    Default                     : Yes
    Forced                      : No

    Audio #2
    ID                          : 3
    Format                      : E-AC-3
    Format/Info                 : Enhanced AC-3
    Commercial name             : Dolby Digital Plus
    Codec ID                    : A_EAC3
    Duration                    : 47 min 18 s
    Bit rate mode               : Constant
    Bit rate                    : 640 kb/s
    Channel(s)                  : 6 channels
    Channel layout              : L R C LFE Ls Rs
    Sampling rate               : 48.0 kHz
    Frame rate                  : 31.250 FPS (1536 SPF)
    Bit depth                   : 32 bits
    Compression mode            : Lossy
    Stream size                 : 217 MiB (5%)
    Title                       : Inglés [CinemaniaHDD]
    Language                    : English
    Service kind                : Complete Main
    Default                     : No
    Forced                      : No

    Text #1
    ID                          : 4
    Format                      : UTF-8
    Codec ID                    : S_TEXT/UTF8
    Codec ID/Info               : UTF-8 Plain Text
    Duration                    : 33 min 57 s
    Bit rate                    : 1 b/s
    Count of elements           : 12
    Stream size                 : 483 Bytes (0%)
    Title                       : Forzados [CinemaniaHDD]
    Language                    : Spanish
    Default                     : Yes
    Forced                      : Yes

    Text #2
    ID                          : 5
    Format                      : UTF-8
    Codec ID                    : S_TEXT/UTF8
    Codec ID/Info               : UTF-8 Plain Text
    Duration                    : 46 min 42 s
    Bit rate                    : 55 b/s
    Count of elements           : 564
    Stream size                 : 19.1 KiB (0%)
    Title                       : Español latino [CinemaniaHDD]
    Language                    : Spanish
    Default                     : No
    Forced                      : No

    Text #3
    ID                          : 6
    Format                      : UTF-8
    Codec ID                    : S_TEXT/UTF8
    Codec ID/Info               : UTF-8 Plain Text
    Duration                    : 46 min 42 s
    Bit rate                    : 51 b/s
    Count of elements           : 518
    Stream size                 : 17.6 KiB (0%)
    Title                       : Inglés [CinemaniaHDD]
    Language                    : English
    Default                     : No
    Forced                      : No

     

  • Peso: 4.19 GiB C/U --- 2 CAPITULOS AGREGADOS

Sinopsis

La serie, ambientada en Nebraska diez años después del inicio del apocalipsis zombi, presenta a dos jóvenes protagonistas femeninas y se centra en «la primera generación de jóvenes en alcanzar la mayoría de edad en medio del apocalipsis sin que tengan conocimiento de cómo era el mundo antes de la aparición de los caminantes. Algunos se convertirán en héroes. Algunos se convertirán en villanos. Al final, todos ellos cambiarán para siempre. Adultos y cimentados en sus identidades, tanto buenas como malas».

3 CAPITULOS AGREGADOS

Ficha técnica

Video trailer de la película

Enlaces de descarga

Rip de Bluray

Descargar The Walking Dead: World Beyond (2021) Temporada 2 AMZN WEB-DL 1080p Latino




Aportes de DPeliculasHDmega la pass es:dpeliculashdmega.org Aportes de CinemaniaHD la pass es:cinemaniahdd.com
Guardado en : Drama , Misterio , Sci-Fi & Fantasy , Series

Películas relacionadas

  • Batwoman (2021) Temporada 3 HMAX WEB-DL 1080p Latino

    Batwoman (2021) Temporada 3 HMAX WEB-DL 1080p Latino

    2019
    Batwoman (2021) Temporada 3 HMAX WEB-DL 1080p Latino

    0.0 0h 42m 2019

    Kate Kane protege las calles de Gotham como Batwoman, una luchadora con una gran formación dedicada...

    Director: Caroline Dries

    Género: Action & Adventure

    Actores: Victoria Cartagena

  • Stargirl (2021) Temporada 2 WEB-DL 1080p Latino

    Stargirl (2021) Temporada 2 WEB-DL 1080p Latino

    2020
    Stargirl (2021) Temporada 2 WEB-DL 1080p Latino

    3.7 0h 43m 2020

    Courtney Withmore es una estudiante de instituto que ayuda a un grupo de jóvenes héroes a acabar con...

    Director: Geoff Johns

    Género: Action & Adventure

    Actores: Yvette Monreal

  • Dune (2021) HMAX 4K-HDR WEB-DL 2160p Latino

    Dune (2021) HMAX 4K-HDR WEB-DL 2160p Latino

    2021
    Dune (2021) HMAX 4K-HDR WEB-DL 2160p Latino

    5.0 2h 35m 2021

    El hijo de una familia noble trata de vengarse de la muerte de su padre al mismo tiempo que salva un...

    Director: Tom Struthers

    Género: Acción

    Actores: Zendaya

  • Dune (2021) HMAX WEB-DL 1080p Latino

    Dune (2021) HMAX WEB-DL 1080p Latino

    2021
    Dune (2021) HMAX WEB-DL 1080p Latino

    5.0 2h 35m 2021

    El hijo de una familia noble trata de vengarse de la muerte de su padre al mismo tiempo que salva un...

    Director: Tom Struthers

    Género: Acción

    Actores: Zendaya

The Walking Dead: World Beyond (2021) Temporada 2 AMZN WEB-DL 1080p Latino pelicula full hd, The Walking Dead: World Beyond (2021) Temporada 2 AMZN WEB-DL 1080p Latino mega latino, The Walking Dead: World Beyond (2021) Temporada 2 AMZN WEB-DL 1080p Latino 4k latino, The Walking Dead: World Beyond (2021) Temporada 2 AMZN WEB-DL 1080p Latino pelicula completa, The Walking Dead: World Beyond (2021) Temporada 2 AMZN WEB-DL 1080p Latino descargar gratis, descargar The Walking Dead: World Beyond (2021) Temporada 2 AMZN WEB-DL 1080p Latino pelicula latino, The Walking Dead: World Beyond (2021) Temporada 2 AMZN WEB-DL 1080p Latino 1 link mega, The Walking Dead: World Beyond (2021) Temporada 2 AMZN WEB-DL 1080p Latino 1 link google drive, The Walking Dead: World Beyond (2021) Temporada 2 AMZN WEB-DL 1080p Latino hd 1080p latino.
Comentarios 0