×

¿Problemas para descargar con Mozilla, EDGE? Deshabilita la opción "Abrir vinculos en una pestaña nueva" tal como lo muestra ésta imagen.

The Walking Dead World Beyond (2020) Primera Temporada REMUX 1080p Latino – CMHDD

249 vistas

Información de The Walking Dead World Beyond (2020) Primera Temporada REMUX 1080p Latino – CMHDD

Datos de la película

  • Calidad: Full 1080p
  • Audio: Se especifica abajo de la Sinopsis
  • Subtitulos: Español Latino PGS
  • Resolución: 1920x1080p
  • Formato: MKV
  • Codec: H.264
  • Encoder: Dracarys
  • Mediainfo: Clic para Mostrar Datos Ver
  • Format                      : Matroska
    Format version              : Version 4
    File size                   : 8.85 GiB
    Duration                    : 52 min 24 s
    Overall bit rate mode       : Variable
    Overall bit rate            : 24.2 Mb/s
    Movie name                  : The Walking Dead: World Beyond (2020) [T01E01] REMUX 1080p Latino - CMHDD
    Encoded date                : UTC 2021-08-13 00:29:27
    Writing application         : mkvmerge v56.1.0 ('My Friend') 64-bit
    Writing library             : libebml v1.4.2 + libmatroska v1.6.4

    Video
    ID                          : 1
    Format                      : AVC
    Format/Info                 : Advanced Video Codec
    Format profile              : High@L4.1
    Format settings             : CABAC / 4 Ref Frames
    Format settings, CABAC      : Yes
    Format settings, Reference  : 4 frames
    Codec ID                    : V_MPEG4/ISO/AVC
    Duration                    : 52 min 24 s
    Bit rate mode               : Variable
    Bit rate                    : 17.8 Mb/s
    Maximum bit rate            : 25.0 Mb/s
    Width                       : 1 920 pixels
    Height                      : 1 080 pixels
    Display aspect ratio        : 16:9
    Frame rate mode             : Constant
    Frame rate                  : 23.976 (24000/1001) FPS
    Color space                 : YUV
    Chroma subsampling          : 4:2:0
    Bit depth                   : 8 bits
    Scan type                   : Progressive
    Bits/(Pixel*Frame)          : 0.359
    Stream size                 : 6.53 GiB (74%)
    Default                     : Yes
    Forced                      : No

    Audio #1
    ID                          : 2
    Format                      : DTS XLL
    Format/Info                 : Digital Theater Systems
    Commercial name             : DTS-HD Master Audio
    Codec ID                    : A_DTS
    Duration                    : 52 min 24 s
    Bit rate mode               : Variable
    Bit rate                    : 3 157 kb/s
    Channel(s)                  : 6 channels
    Channel layout              : C L R Ls Rs LFE
    Sampling rate               : 48.0 kHz
    Frame rate                  : 93.750 FPS (512 SPF)
    Bit depth                   : 24 bits
    Compression mode            : Lossless
    Stream size                 : 1.16 GiB (13%)
    Language                    : English
    Default                     : No
    Forced                      : No

    Audio #2
    ID                          : 3
    Format                      : DTS XLL
    Format/Info                 : Digital Theater Systems
    Commercial name             : DTS-HD Master Audio
    Codec ID                    : A_DTS
    Duration                    : 52 min 24 s
    Bit rate mode               : Variable
    Bit rate                    : 3 168 kb/s
    Channel(s)                  : 6 channels
    Channel layout              : C L R Ls Rs LFE
    Sampling rate               : 48.0 kHz
    Frame rate                  : 93.750 FPS (512 SPF)
    Bit depth                   : 24 bits
    Compression mode            : Lossless
    Stream size                 : 1.16 GiB (13%)
    Language                    : Spanish
    Default                     : Yes
    Forced                      : No

    Text #1
    ID                          : 4
    Format                      : PGS
    Muxing mode                 : zlib
    Codec ID                    : S_HDMV/PGS
    Codec ID/Info               : Picture based subtitle format used on BDs/HD-DVDs
    Duration                    : 51 min 14 s
    Bit rate                    : 28.3 kb/s
    Count of elements           : 1436
    Stream size                 : 10.4 MiB (0%)
    Language                    : Spanish
    Default                     : No
    Forced                      : No

    Text #2
    ID                          : 5
    Format                      : PGS
    Muxing mode                 : zlib
    Codec ID                    : S_HDMV/PGS
    Codec ID/Info               : Picture based subtitle format used on BDs/HD-DVDs
    Duration                    : 47 min 8 s
    Bit rate                    : 940 b/s
    Count of elements           : 42
    Stream size                 : 325 KiB (0%)
    Language                    : Spanish
    Default                     : Yes
    Forced                      : No

  • Peso: 88,1 GiB Total

Sinopsis

La serie, ambientada en Nebraska diez años después del inicio del apocalipsis zombi, presenta a dos jóvenes protagonistas femeninas y se centra en «la primera generación de jóvenes en alcanzar la mayoría de edad en medio del apocalipsis sin que tengan conocimiento de cómo era el mundo antes de la aparición de los caminantes. Algunos se convertirán en héroes. Algunos se convertirán en villanos. Al final, todos ellos cambiarán para siempre. Adultos y cimentados en sus identidades, tanto buenas como malas».

 

Latino: DTS-HD Master Audio 5.1  –  Ingles: DTS-HD Master Audio 5.1

Ficha técnica

Video trailer de la película

Enlaces de descarga

Rip de Bluray

Descargar The Walking Dead World Beyond (2020) Primera Temporada REMUX 1080p Latino – CMHDD


Aportes de DPeliculasHDmega la pass es:dpeliculashdmega.org Aportes de CinemaniaHD la pass es:cinemaniahdd.com
Guardado en : Drama , Misterio , Sci-Fi & Fantasy

Películas relacionadas

  • Paradise Highway (2022) HD 1080p Latino

    Paradise Highway (2022) HD 1080p Latino

    2022
    Paradise Highway (2022) HD 1080p Latino

    1h 55m 2022

    Descargar Paradise Highway (2022) HD 1080p Latino. Un camionero se ha visto obligado a pasar de contrabando...

    Director: Anna Gutto

    Género: Crimen

    Actores: Xavier Scott Evans

  • Paradise Highway (2022) PLACEBO Full HD 1080p Latino

    Paradise Highway (2022) PLACEBO Full HD 1080p Latino

    2022
    Paradise Highway (2022) PLACEBO Full HD 1080p Latino

    1h 55m 2022

    Descargar Paradise Highway (2022) PLACEBO Full HD 1080p Latino. Un camionero se ha visto obligado a pasar...

    Director: Anna Gutto

    Género: Crimen

    Actores: Xavier Scott Evans

  • Paradise Highway (2022) REMUX 1080p Latino

    Paradise Highway (2022) REMUX 1080p Latino

    2022
    Paradise Highway (2022) REMUX 1080p Latino

    1h 55m 2022

    Descargar Paradise Highway (2022) REMUX 1080p Latino. Un camionero se ha visto obligado a pasar de contrabando...

    Director: Anna Gutto

    Género: Crimen

    Actores: Xavier Scott Evans

descargar The Walking Dead World Beyond (2020) Primera Temporada REMUX 1080p Latino – CMHDD Full 1080p 1080p gratis, The Walking Dead World Beyond (2020) Primera Temporada REMUX 1080p Latino – CMHDD Full 1080p mega 1 link, The Walking Dead World Beyond (2020) Primera Temporada REMUX 1080p Latino – CMHDD Full 1080p pelicula completa, descargar The Walking Dead World Beyond (2020) Primera Temporada REMUX 1080p Latino – CMHDD Full 1080p gratis en mega.

The Walking Dead World Beyond (2020) Primera Temporada REMUX 1080p Latino – CMHDD pelicula full hd, The Walking Dead World Beyond (2020) Primera Temporada REMUX 1080p Latino – CMHDD mega latino, The Walking Dead World Beyond (2020) Primera Temporada REMUX 1080p Latino – CMHDD 4k latino, The Walking Dead World Beyond (2020) Primera Temporada REMUX 1080p Latino – CMHDD pelicula completa, The Walking Dead World Beyond (2020) Primera Temporada REMUX 1080p Latino – CMHDD descargar gratis, descargar The Walking Dead World Beyond (2020) Primera Temporada REMUX 1080p Latino – CMHDD pelicula latino, The Walking Dead World Beyond (2020) Primera Temporada REMUX 1080p Latino – CMHDD 1 link mega, The Walking Dead World Beyond (2020) Primera Temporada REMUX 1080p Latino – CMHDD 1 link google drive, The Walking Dead World Beyond (2020) Primera Temporada REMUX 1080p Latino – CMHDD hd 1080p latino.
Comentarios 0