×

¿Problemas para descargar con Mozilla, EDGE? Deshabilita la opción "Abrir vinculos en una pestaña nueva" tal como lo muestra ésta imagen.

The Walking Dead: Dead City (2023) Primera Temporada AMZN WEB-DL 1080p Latino

187 vistas

Información de The Walking Dead: Dead City (2023) Primera Temporada AMZN WEB-DL 1080p Latino

Datos de la película

  • Calidad: 1080p
  • Audio: Español Latino AC3 5.1 WEB-DL - Ingles AC3 5.1 WEB-DL
  • Subtitulos: Español Latino SRT- FORZADOS SRT
  • Resolución: 1920x1080
  • Formato: MKV
  • Codec: H.264
  • Encoder: cinemaniahdd
  • Mediainfo: Clic para Mostrar Datos Ver
  • The Walking Dead. Dead City T01E01 AMZN WEB-DL 1080p Latino [CNMNHDD].mkv
    Format                      : Matroska
    Format version              : Version 4
    File size                   : 2.92 GiB
    Duration                    : 49 min 38 s
    Overall bit rate            : 8 425 kb/s
    Movie name                  : The Walking Dead. Dead City S01E01 - Old Acquaintances [1080p] - CinemaniaHDD.Net
    Encoded date                : UTC 2023-09-19 04:31:43
    Writing application         : mkvmerge v56.1.0 ('My Friend') 64-bit
    Writing library             : libebml v1.4.2 + libmatroska v1.6.4

    Video
    ID                          : 1
    Format                      : AVC
    Format/Info                 : Advanced Video Codec
    Format profile              : High@L4
    Format settings             : CABAC / 4 Ref Frames
    Format settings, CABAC      : Yes
    Format settings, Reference  : 4 frames
    Codec ID                    : V_MPEG4/ISO/AVC
    Duration                    : 49 min 38 s
    Bit rate mode               : Constant
    Bit rate                    : 6 502 kb/s
    Nominal bit rate            : 10 000 kb/s
    Width                       : 1 920 pixels
    Height                      : 960 pixels
    Display aspect ratio        : 2.000
    Frame rate mode             : Constant
    Frame rate                  : 24.000 FPS
    Color space                 : YUV
    Chroma subsampling          : 4:2:0
    Bit depth                   : 8 bits
    Scan type                   : Progressive
    Bits/(Pixel*Frame)          : 0.147
    Stream size                 : 2.25 GiB (77%)
    Title                       : CinemaniaHDD
    Default                     : Yes
    Forced                      : No
    Color range                 : Limited
    Color primaries             : BT.709
    Transfer characteristics    : BT.709
    Matrix coefficients         : BT.709

    Audio #1
    ID                          : 2
    Format                      : AC-3
    Format/Info                 : Audio Coding 3
    Commercial name             : Dolby Digital
    Codec ID                    : A_AC3
    Duration                    : 49 min 38 s
    Bit rate mode               : Constant
    Bit rate                    : 640 kb/s
    Channel(s)                  : 6 channels
    Channel layout              : L R C LFE Ls Rs
    Sampling rate               : 48.0 kHz
    Frame rate                  : 31.250 FPS (1536 SPF)
    Compression mode            : Lossy
    Stream size                 : 227 MiB (8%)
    Title                       : Español latino [CinemaniaHDD]
    Language                    : Spanish
    Service kind                : Complete Main
    Default                     : Yes
    Forced                      : No

    Audio #2
    ID                          : 3
    Format                      : E-AC-3
    Format/Info                 : Enhanced AC-3
    Commercial name             : Dolby Digital Plus
    Codec ID                    : A_EAC3
    Duration                    : 49 min 38 s
    Bit rate mode               : Constant
    Bit rate                    : 640 kb/s
    Channel(s)                  : 6 channels
    Channel layout              : L R C LFE Ls Rs
    Sampling rate               : 48.0 kHz
    Frame rate                  : 31.250 FPS (1536 SPF)
    Compression mode            : Lossy
    Stream size                 : 227 MiB (8%)
    Title                       : Español latino / E-AC3 [CinemaniaHDD]
    Language                    : Spanish
    Service kind                : Complete Main
    Default                     : No
    Forced                      : No

    Audio #3
    ID                          : 4
    Format                      : E-AC-3
    Format/Info                 : Enhanced AC-3
    Commercial name             : Dolby Digital Plus
    Codec ID                    : A_EAC3
    Duration                    : 49 min 38 s
    Bit rate mode               : Constant
    Bit rate                    : 640 kb/s
    Channel(s)                  : 6 channels
    Channel layout              : L R C LFE Ls Rs
    Sampling rate               : 48.0 kHz
    Frame rate                  : 31.250 FPS (1536 SPF)
    Compression mode            : Lossy
    Stream size                 : 227 MiB (8%)
    Title                       : Inglés [CinemaniaHDD]
    Language                    : English
    Service kind                : Complete Main
    Default                     : No
    Forced                      : No

    Text #1
    ID                          : 5
    Format                      : UTF-8
    Codec ID                    : S_TEXT/UTF8
    Codec ID/Info               : UTF-8 Plain Text
    Duration                    : 14 min 15 s
    Bit rate                    : 1 b/s
    Count of elements           : 4
    Stream size                 : 153 Bytes (0%)
    Title                       : Forzados [CinemaniaHDD]
    Language                    : Spanish
    Default                     : Yes
    Forced                      : Yes

    Text #2
    ID                          : 6
    Format                      : UTF-8
    Codec ID                    : S_TEXT/UTF8
    Codec ID/Info               : UTF-8 Plain Text
    Duration                    : 44 min 54 s
    Bit rate                    : 36 b/s
    Count of elements           : 355
    Stream size                 : 11.9 KiB (0%)
    Title                       : Español latino [CinemaniaHDD]
    Language                    : Spanish
    Default                     : No
    Forced                      : No

    Text #3
    ID                          : 7
    Format                      : UTF-8
    Codec ID                    : S_TEXT/UTF8
    Codec ID/Info               : UTF-8 Plain Text
    Duration                    : 45 min 3 s
    Bit rate                    : 32 b/s
    Count of elements           : 358
    Stream size                 : 10.8 KiB (0%)
    Title                       : Inglés [CinemaniaHDD]
    Language                    : English
    Default                     : No
    Forced                      : No

    Menu
    00:00:00.000                : Scene 1
    00:02:43.000                : Opening Credits
    00:03:30.000                : Scene 3
    00:08:25.000                : Scene 4
    00:14:06.000                : Scene 5
    00:19:59.000                : Scene 6
    00:22:04.000                : Scene 7
    00:22:17.000                : Scene 8
    00:25:18.000                : Scene 9
    00:31:24.000                : Scene 10
    00:34:20.000                : Scene 11
    00:39:22.000                : Scene 12
    00:44:07.000                : Scene 13
    00:44:47.000                : Scene 14
    00:49:07.000                : End Credits

     

  • Peso: 2.92 GiB Aprox ---- 16 GiB in 6 Chapters.

Sinopsis

«Dead City» amplía la narración de «The Walking Dead» en torno a dos personajes inolvidables que los fanáticos han llegado a amar, odiar y luego amar en Maggie y Negan. También explora un rincón de este universo ubicado en la isla de Manhattan, con un horizonte icónico que adquiere un significado muy diferente cuando se ve a través de la lente de un apocalipsis zombie.

Ficha técnica

Video trailer de la película

Enlaces de descarga

Rip de Bluray

Descargar The Walking Dead: Dead City (2023) Primera Temporada AMZN WEB-DL 1080p Latino




Aportes de DPeliculasHDmega la pass es:dpeliculashdmega.org Aportes de CinemaniaHD la pass es:cinemaniahdd.com Aportes recientes:cinemaniahdd.net

Películas relacionadas

descargar The Walking Dead: Dead City (2023) Primera Temporada AMZN WEB-DL 1080p Latino 1080p 1080p gratis, The Walking Dead: Dead City (2023) Primera Temporada AMZN WEB-DL 1080p Latino 1080p mega 1 link, The Walking Dead: Dead City (2023) Primera Temporada AMZN WEB-DL 1080p Latino 1080p serie completa, descargar The Walking Dead: Dead City (2023) Primera Temporada AMZN WEB-DL 1080p Latino 1080p gratis en mega.

The Walking Dead: Dead City (2023) Primera Temporada AMZN WEB-DL 1080p Latino pelicula full hd, The Walking Dead: Dead City (2023) Primera Temporada AMZN WEB-DL 1080p Latino mega latino, The Walking Dead: Dead City (2023) Primera Temporada AMZN WEB-DL 1080p Latino 4k latino, The Walking Dead: Dead City (2023) Primera Temporada AMZN WEB-DL 1080p Latino pelicula completa, The Walking Dead: Dead City (2023) Primera Temporada AMZN WEB-DL 1080p Latino descargar gratis, descargar The Walking Dead: Dead City (2023) Primera Temporada AMZN WEB-DL 1080p Latino pelicula latino, The Walking Dead: Dead City (2023) Primera Temporada AMZN WEB-DL 1080p Latino 1 link mega, The Walking Dead: Dead City (2023) Primera Temporada AMZN WEB-DL 1080p Latino 1 link google drive, The Walking Dead: Dead City (2023) Primera Temporada AMZN WEB-DL 1080p Latino hd 1080p latino.
Comentarios 0