×

¿Problemas para descargar con Mozilla, EDGE? Deshabilita la opción "Abrir vinculos en una pestaña nueva" tal como lo muestra ésta imagen.

The Walking Dead: Daryl Dixon (2023) Primera Temporada AMZN WEB-DL 1080p Latino

677 vistas

Información de The Walking Dead: Daryl Dixon (2023) Primera Temporada AMZN WEB-DL 1080p Latino

Datos de la película

  • Calidad: 1080p
  • Audio: Español Latino AC3 5.1 WEB-DL - Ingles AC3 5.1 WEB-DL
  • Subtitulos: Español Latino SRT- FORZADOS SRT
  • Resolución: 1920x1080
  • Formato: MKV
  • Codec: H.264
  • Encoder: cinemaniahdd
  • Mediainfo: Clic para Mostrar Datos Ver
  • The Walking Dead. Daryl Dixon T01E01 AMZN WEB-DL 1080p Latino [CNMNHDD].mkv
    Format                      : Matroska
    Format version              : Version 4
    File size                   : 4.66 GiB
    Duration                    : 59 min 42 s
    Overall bit rate            : 11.2 Mb/s
    Movie name                  : The Walking Dead. Daryl Dixon S01E01 - L'ame Perdue [1080p] - CinemaniaHDD.Net
    Encoded date                : UTC 2024-04-08 22:40:59
    Writing application         : mkvmerge v56.1.0 ('My Friend') 64-bit
    Writing library             : libebml v1.4.2 + libmatroska v1.6.4

    Video
    ID                          : 1
    Format                      : AVC
    Format/Info                 : Advanced Video Codec
    Format profile              : High@L4
    Format settings             : CABAC / 4 Ref Frames
    Format settings, CABAC      : Yes
    Format settings, Reference  : 4 frames
    Codec ID                    : V_MPEG4/ISO/AVC
    Duration                    : 59 min 42 s
    Bit rate mode               : Constant
    Bit rate                    : 9 248 kb/s
    Nominal bit rate            : 10 000 kb/s
    Width                       : 1 920 pixels
    Height                      : 960 pixels
    Display aspect ratio        : 2.000
    Frame rate mode             : Constant
    Frame rate                  : 23.976 (24000/1001) FPS
    Color space                 : YUV
    Chroma subsampling          : 4:2:0
    Bit depth                   : 8 bits
    Scan type                   : Progressive
    Bits/(Pixel*Frame)          : 0.209
    Stream size                 : 3.86 GiB (83%)
    Title                       : CinemaniaHDD
    Default                     : Yes
    Forced                      : No
    Color range                 : Limited
    Color primaries             : BT.709
    Transfer characteristics    : BT.709
    Matrix coefficients         : BT.709

    Audio #1
    ID                          : 2
    Format                      : AC-3
    Format/Info                 : Audio Coding 3
    Commercial name             : Dolby Digital
    Codec ID                    : A_AC3
    Duration                    : 59 min 42 s
    Bit rate mode               : Constant
    Bit rate                    : 640 kb/s
    Channel(s)                  : 6 channels
    Channel layout              : L R C LFE Ls Rs
    Sampling rate               : 48.0 kHz
    Frame rate                  : 31.250 FPS (1536 SPF)
    Compression mode            : Lossy
    Stream size                 : 273 MiB (6%)
    Title                       : Español Latino (AC3) [CinemaniaHDD]
    Language                    : Spanish
    Service kind                : Complete Main
    Default                     : Yes
    Forced                      : No

    Audio #2
    ID                          : 3
    Format                      : E-AC-3
    Format/Info                 : Enhanced AC-3
    Commercial name             : Dolby Digital Plus
    Codec ID                    : A_EAC3
    Duration                    : 59 min 42 s
    Bit rate mode               : Constant
    Bit rate                    : 640 kb/s
    Channel(s)                  : 6 channels
    Channel layout              : L R C LFE Ls Rs
    Sampling rate               : 48.0 kHz
    Frame rate                  : 31.250 FPS (1536 SPF)
    Compression mode            : Lossy
    Stream size                 : 273 MiB (6%)
    Title                       : Español Latino (E-AC3) [CinemaniaHDD]
    Language                    : Spanish
    Service kind                : Complete Main
    Default                     : No
    Forced                      : No

    Audio #3
    ID                          : 4
    Format                      : E-AC-3
    Format/Info                 : Enhanced AC-3
    Commercial name             : Dolby Digital Plus
    Codec ID                    : A_EAC3
    Duration                    : 59 min 42 s
    Bit rate mode               : Constant
    Bit rate                    : 640 kb/s
    Channel(s)                  : 6 channels
    Channel layout              : L R C LFE Ls Rs
    Sampling rate               : 48.0 kHz
    Frame rate                  : 31.250 FPS (1536 SPF)
    Compression mode            : Lossy
    Stream size                 : 273 MiB (6%)
    Title                       : Inglés (Original) [CinemaniaHDD]
    Language                    : English
    Service kind                : Complete Main
    Default                     : No
    Forced                      : No

    Text #1
    ID                          : 5
    Format                      : UTF-8
    Codec ID                    : S_TEXT/UTF8
    Codec ID/Info               : UTF-8 Plain Text
    Duration                    : 17 min 57 s
    Bit rate                    : 1 b/s
    Count of elements           : 8
    Stream size                 : 156 Bytes (0%)
    Title                       : Forzados [CinemaniaHDD]
    Language                    : Spanish
    Default                     : Yes
    Forced                      : Yes

    Text #2
    ID                          : 6
    Format                      : UTF-8
    Codec ID                    : S_TEXT/UTF8
    Codec ID/Info               : UTF-8 Plain Text
    Duration                    : 54 min 16 s
    Bit rate                    : 34 b/s
    Count of elements           : 397
    Stream size                 : 13.8 KiB (0%)
    Title                       : Español Latino [CinemaniaHDD]
    Language                    : Spanish
    Default                     : No
    Forced                      : No

     

  • Peso: 4.66 GiB Aprox ---- 26 GiB in 6 Chapters.

Sinopsis

Serie spin-off de The Walking Dead que cuenta la historia de Daryl Dixon tras haber sobtevivido a los diferentes problemas causados a raíz del apocalipsisi zombie. Daryl desembarca en la zona de origen del virus que ha provocado la epidemia, en Francia, pero no sabe muy bien cómo ha llegado hasta allí y con qué motivo.

Comenzará allí un viaje a través de una Francia rota pero resistente, con la esperanza de poder volver a casa sano y salvo. Sin embargo, a medida que progresa su travesía de regreso, las conexiones que establece por el camino complican su plan final.

Ficha técnica

Video trailer de la película

Enlaces de descarga

Rip de Bluray

Descargar The Walking Dead: Daryl Dixon (2023) Primera Temporada AMZN WEB-DL 1080p Latino




Aportes de DPeliculasHDmega la pass es:dpeliculashdmega.org Aportes de CinemaniaHD la pass es:cinemaniahdd.com Aportes recientes:cinemaniahdd.net

Películas relacionadas

descargar The Walking Dead: Daryl Dixon (2023) Primera Temporada AMZN WEB-DL 1080p Latino 1080p 1080p gratis, The Walking Dead: Daryl Dixon (2023) Primera Temporada AMZN WEB-DL 1080p Latino 1080p mega 1 link, The Walking Dead: Daryl Dixon (2023) Primera Temporada AMZN WEB-DL 1080p Latino 1080p serie completa, descargar The Walking Dead: Daryl Dixon (2023) Primera Temporada AMZN WEB-DL 1080p Latino 1080p gratis en mega.

The Walking Dead: Daryl Dixon (2023) Primera Temporada AMZN WEB-DL 1080p Latino pelicula full hd, The Walking Dead: Daryl Dixon (2023) Primera Temporada AMZN WEB-DL 1080p Latino mega latino, The Walking Dead: Daryl Dixon (2023) Primera Temporada AMZN WEB-DL 1080p Latino 4k latino, The Walking Dead: Daryl Dixon (2023) Primera Temporada AMZN WEB-DL 1080p Latino pelicula completa, The Walking Dead: Daryl Dixon (2023) Primera Temporada AMZN WEB-DL 1080p Latino descargar gratis, descargar The Walking Dead: Daryl Dixon (2023) Primera Temporada AMZN WEB-DL 1080p Latino pelicula latino, The Walking Dead: Daryl Dixon (2023) Primera Temporada AMZN WEB-DL 1080p Latino 1 link mega, The Walking Dead: Daryl Dixon (2023) Primera Temporada AMZN WEB-DL 1080p Latino 1 link google drive, The Walking Dead: Daryl Dixon (2023) Primera Temporada AMZN WEB-DL 1080p Latino hd 1080p latino.
Comentarios 0