The Walking Dead (2021) Temporada 11 AMZN WEB-DL 1080p Latino

64 vistas
1 estrella2 estrellas3 estrellas4 estrellas5 estrellas (4 votos, promedio: 5,00 de 5)
Cargando...

Información de The Walking Dead (2021) Temporada 11 AMZN WEB-DL 1080p Latino

Datos de la película

  • Calidad: 1080p
  • Audio: Español Latino AC3 5.1 WEB-DL - Ingles AC3 5.1 WEB-DL
  • Subtitulos: Español Latino SRT- FORZADOS SRT
  • Resolución: 1920x1080
  • Formato: MKV
  • Codec: H.264
  • Encoder: cinemaniahdd
  • Mediainfo: Clic para Mostrar Datos Ver
  • The Walking Dead T11E01 AMZN WEB-DL 1080p Latino [CNMNHDD].mkv
    Format                      : Matroska
    Format version              : Version 4
    File size                   : 4.24 GiB
    Duration                    : 45 min 17 s
    Overall bit rate mode       : Variable
    Overall bit rate            : 13.4 Mb/s
    Movie name                  : The Walking Dead T11E01 - CinemaniaHDD.Net
    Encoded date                : UTC 2021-08-25 00:02:25
    Writing application         : mkvmerge v56.1.0 ('My Friend') 64-bit
    Writing library             : libebml v1.4.2 + libmatroska v1.6.4

    Video
    ID                          : 1
    Format                      : AVC
    Format/Info                 : Advanced Video Codec
    Format profile              : High@L4
    Format settings             : CABAC / 4 Ref Frames
    Format settings, CABAC      : Yes
    Format settings, Reference  : 4 frames
    Codec ID                    : V_MPEG4/ISO/AVC
    Duration                    : 45 min 17 s
    Bit rate mode               : Variable
    Bit rate                    : 12.4 Mb/s
    Maximum bit rate            : 40.0 Mb/s
    Width                       : 1 920 pixels
    Height                      : 1 080 pixels
    Display aspect ratio        : 16:9
    Frame rate mode             : Constant
    Frame rate                  : 24.000 FPS
    Color space                 : YUV
    Chroma subsampling          : 4:2:0
    Bit depth                   : 8 bits
    Scan type                   : Progressive
    Bits/(Pixel*Frame)          : 0.249
    Stream size                 : 3.91 GiB (92%)
    Title                       : CinemaniaHDD
    Default                     : Yes
    Forced                      : No
    Color range                 : Limited
    Color primaries             : BT.709
    Transfer characteristics    : BT.709
    Matrix coefficients         : BT.709

    Audio #1
    ID                          : 2
    Format                      : AC-3
    Format/Info                 : Audio Coding 3
    Commercial name             : Dolby Digital
    Codec ID                    : A_AC3
    Duration                    : 45 min 16 s
    Bit rate mode               : Constant
    Bit rate                    : 384 kb/s
    Channel(s)                  : 6 channels
    Channel layout              : L R C LFE Ls Rs
    Sampling rate               : 48.0 kHz
    Frame rate                  : 31.250 FPS (1536 SPF)
    Compression mode            : Lossy
    Stream size                 : 124 MiB (3%)
    Title                       : Español latino [CinemaniaHDD]
    Language                    : Spanish
    Service kind                : Complete Main
    Default                     : Yes
    Forced                      : No

    Audio #2
    ID                          : 3
    Format                      : E-AC-3
    Format/Info                 : Enhanced AC-3
    Commercial name             : Dolby Digital Plus
    Codec ID                    : A_EAC3
    Duration                    : 45 min 16 s
    Bit rate mode               : Constant
    Bit rate                    : 640 kb/s
    Channel(s)                  : 6 channels
    Channel layout              : L R C LFE Ls Rs
    Sampling rate               : 48.0 kHz
    Frame rate                  : 31.250 FPS (1536 SPF)
    Compression mode            : Lossy
    Stream size                 : 207 MiB (5%)
    Title                       : Inglés [CinemaniaHDD]
    Language                    : English
    Service kind                : Complete Main
    Default                     : No
    Forced                      : No

    Text #1
    ID                          : 4
    Format                      : UTF-8
    Codec ID                    : S_TEXT/UTF8
    Codec ID/Info               : UTF-8 Plain Text
    Duration                    : 30 min 20 s
    Bit rate                    : 1 b/s
    Count of elements           : 6
    Stream size                 : 245 Bytes (0%)
    Title                       : Forzados [CinemaniaHDD]
    Language                    : Spanish
    Default                     : Yes
    Forced                      : Yes

    Text #2
    ID                          : 5
    Format                      : UTF-8
    Codec ID                    : S_TEXT/UTF8
    Codec ID/Info               : UTF-8 Plain Text
    Duration                    : 39 min 8 s
    Bit rate                    : 47 b/s
    Count of elements           : 451
    Stream size                 : 13.7 KiB (0%)
    Title                       : Español latino [CinemaniaHDD]
    Language                    : Spanish
    Default                     : No
    Forced                      : No

    Text #3
    ID                          : 6
    Format                      : UTF-8
    Codec ID                    : S_TEXT/UTF8
    Codec ID/Info               : UTF-8 Plain Text
    Duration                    : 44 min 37 s
    Bit rate                    : 50 b/s
    Count of elements           : 775
    Stream size                 : 16.5 KiB (0%)
    Title                       : Inglés [CinemaniaHDD]
    Language                    : English
    Default                     : No
    Forced                      : No

     

  • Peso: 4.24 GiB C/U --- 5 CAPITULOS AGREGADOS

Sinopsis

«The Walking Dead» está ambientada en un futuro apocalíptico con la Tierra devastada por el efecto de un cataclismo, que ha provocado la mutación en zombies de la mayor parte de los habitantes del planeta. La serie, explora las dificultades de los protagonistas para sobrevivir en un mundo poblado por el horror, así como las relaciones personales que se establecen entre ellos, en ocasiones también una amenaza para su supervivencia.

5 CAPITULOS AGREGADOS

Ficha técnica

Video trailer de la película

Enlaces de descarga

Rip de Bluray

Descargar The Walking Dead (2021) Temporada 11 AMZN WEB-DL 1080p Latino




Aportes de DPeliculasHDmega la pass es:dpeliculashdmega.org Aportes de CinemaniaHD la pass es:cinemaniahdd.com

Películas relacionadas

The Walking Dead (2021) Temporada 11 AMZN WEB-DL 1080p Latino pelicula full hd, The Walking Dead (2021) Temporada 11 AMZN WEB-DL 1080p Latino mega latino, The Walking Dead (2021) Temporada 11 AMZN WEB-DL 1080p Latino 4k latino, The Walking Dead (2021) Temporada 11 AMZN WEB-DL 1080p Latino pelicula completa, The Walking Dead (2021) Temporada 11 AMZN WEB-DL 1080p Latino descargar gratis, descargar The Walking Dead (2021) Temporada 11 AMZN WEB-DL 1080p Latino pelicula latino, The Walking Dead (2021) Temporada 11 AMZN WEB-DL 1080p Latino 1 link mega, The Walking Dead (2021) Temporada 11 AMZN WEB-DL 1080p Latino 1 link google drive, The Walking Dead (2021) Temporada 11 AMZN WEB-DL 1080p Latino hd 1080p latino.
Comentarios 2
  • CESAR - 30 agosto, 2021

    gracias por el aporte, pero no hay versiones mas ligeras? lo digo porque los capitulos los pongo en USB para reproducirlos en TV pero al pesar mas de 4gb, me aparece un mensaje de espacio insuficiente aunque tenga la USB sin archivos y con capacidad de almacenar 16 gb, saben de algún truco para guardar estos tipos de archivos? o simplemente no se puede? gracias por el aporte y su atención.

    • Dracarys - 30 agosto, 2021

      Cambia el formato del USD a NTFS eso se hace el momento de formatear la unidad 😉