×

¿Problemas para descargar con Mozilla, EDGE? Deshabilita la opción "Abrir vinculos en una pestaña nueva" tal como lo muestra ésta imagen.

The Walking Dead (2022) Undécima Temporada AMZN WEB-DL 1080p Latino

8.526 vistas

Información de The Walking Dead (2022) Undécima Temporada AMZN WEB-DL 1080p Latino

Datos de la película

  • Calidad: 1080p
  • Audio: Español Latino AC3 5.1 WEB-DL - Ingles AC3 5.1 WEB-DL
  • Subtitulos: Español Latino SRT- FORZADOS SRT
  • Resolución: 1920x1080
  • Formato: MKV
  • Codec: H.264
  • Encoder: cinemaniahdd
  • Mediainfo: Clic para Mostrar Datos Ver
  • The Walking Dead T11E24 FINAL AMZN WEB-DL 1080p Latino [CNMNHDD].mkv
    Format                      : Matroska
    Format version              : Version 4
    File size                   : 6.68 GiB
    Duration                    : 1 h 4 min
    Overall bit rate mode       : Variable
    Overall bit rate            : 14.9 Mb/s
    Movie name                  : The Walking Dead T11E24 - Rest in Peace [1080p] - CinemaniaHDD.Net
    Encoded date                : UTC 2022-11-21 03:31:48
    Writing application         : mkvmerge v56.1.0 ('My Friend') 64-bit
    Writing library             : libebml v1.4.2 + libmatroska v1.6.4

    Video
    ID                          : 1
    Format                      : AVC
    Format/Info                 : Advanced Video Codec
    Format profile              : High@L4
    Format settings             : CABAC / 4 Ref Frames
    Format settings, CABAC      : Yes
    Format settings, Reference  : 4 frames
    Codec ID                    : V_MPEG4/ISO/AVC
    Duration                    : 1 h 4 min
    Bit rate mode               : Variable
    Bit rate                    : 13.9 Mb/s
    Maximum bit rate            : 40.0 Mb/s
    Width                       : 1 920 pixels
    Height                      : 1 080 pixels
    Display aspect ratio        : 16:9
    Frame rate mode             : Constant
    Frame rate                  : 24.000 FPS
    Color space                 : YUV
    Chroma subsampling          : 4:2:0
    Bit depth                   : 8 bits
    Scan type                   : Progressive
    Bits/(Pixel*Frame)          : 0.280
    Stream size                 : 6.22 GiB (93%)
    Title                       : CinemaniaHDD
    Default                     : Yes
    Forced                      : No
    Color range                 : Limited
    Color primaries             : BT.709
    Transfer characteristics    : BT.709
    Matrix coefficients         : BT.709

    Audio #1
    ID                          : 2
    Format                      : AC-3
    Format/Info                 : Audio Coding 3
    Commercial name             : Dolby Digital
    Codec ID                    : A_AC3
    Duration                    : 1 h 4 min
    Bit rate mode               : Constant
    Bit rate                    : 384 kb/s
    Channel(s)                  : 6 channels
    Channel layout              : L R C LFE Ls Rs
    Sampling rate               : 48.0 kHz
    Frame rate                  : 31.250 FPS (1536 SPF)
    Compression mode            : Lossy
    Stream size                 : 176 MiB (3%)
    Title                       : Español latino [CinemaniaHDD]
    Language                    : Spanish
    Service kind                : Complete Main
    Default                     : Yes
    Forced                      : No

    Audio #2
    ID                          : 3
    Format                      : E-AC-3
    Format/Info                 : Enhanced AC-3
    Commercial name             : Dolby Digital Plus
    Codec ID                    : A_EAC3
    Duration                    : 1 h 4 min
    Bit rate mode               : Constant
    Bit rate                    : 640 kb/s
    Channel(s)                  : 6 channels
    Channel layout              : L R C LFE Ls Rs
    Sampling rate               : 48.0 kHz
    Frame rate                  : 31.250 FPS (1536 SPF)
    Compression mode            : Lossy
    Stream size                 : 293 MiB (4%)
    Title                       : Inglés [CinemaniaHDD]
    Language                    : English
    Service kind                : Complete Main
    Default                     : No
    Forced                      : No

    Text #1
    ID                          : 4
    Format                      : UTF-8
    Codec ID                    : S_TEXT/UTF8
    Codec ID/Info               : UTF-8 Plain Text
    Duration                    : 47 min 5 s
    Bit rate                    : 0 b/s
    Count of elements           : 12
    Stream size                 : 233 Bytes (0%)
    Title                       : Forzados [CinemaniaHDD]
    Language                    : Spanish
    Default                     : Yes
    Forced                      : Yes

    Text #2
    ID                          : 5
    Format                      : UTF-8
    Codec ID                    : S_TEXT/UTF8
    Codec ID/Info               : UTF-8 Plain Text
    Duration                    : 1 h 3 min
    Bit rate                    : 37 b/s
    Count of elements           : 595
    Stream size                 : 17.6 KiB (0%)
    Title                       : Español latino [CinemaniaHDD]
    Language                    : Spanish
    Default                     : No
    Forced                      : No

    Text #3
    ID                          : 6
    Format                      : UTF-8
    Codec ID                    : S_TEXT/UTF8
    Codec ID/Info               : UTF-8 Plain Text
    Duration                    : 1 h 3 min
    Bit rate                    : 39 b/s
    Count of elements           : 929
    Stream size                 : 18.3 KiB (0%)
    Title                       : Inglés [CinemaniaHDD]
    Language                    : English
    Default                     : No
    Forced                      : No

     

     

  • Peso: 6.68 GiB Aprox ---- 99.66 GiB in 24 Chapters.

Sinopsis

«The Walking Dead» está ambientada en un futuro apocalíptico con la Tierra devastada por el efecto de un cataclismo, que ha provocado la mutación en zombies de la mayor parte de los habitantes del planeta. La serie, explora las dificultades de los protagonistas para sobrevivir en un mundo poblado por el horror, así como las relaciones personales que se establecen entre ellos, en ocasiones también una amenaza para su supervivencia.

 

Ficha técnica

Video trailer de la película

Enlaces de descarga

Rip de Bluray

Descargar The Walking Dead (2022) Undécima Temporada AMZN WEB-DL 1080p Latino




Aportes de DPeliculasHDmega la pass es:dpeliculashdmega.org Aportes de CinemaniaHD la pass es:cinemaniahdd.com Aportes recientes:cinemaniahdd.net

Películas relacionadas

descargar The Walking Dead (2022) Undécima Temporada AMZN WEB-DL 1080p Latino 1080p 1080p gratis, The Walking Dead (2022) Undécima Temporada AMZN WEB-DL 1080p Latino 1080p mega 1 link, The Walking Dead (2022) Undécima Temporada AMZN WEB-DL 1080p Latino 1080p serie completa, descargar The Walking Dead (2022) Undécima Temporada AMZN WEB-DL 1080p Latino 1080p gratis en mega.

The Walking Dead (2022) Undécima Temporada AMZN WEB-DL 1080p Latino pelicula full hd, The Walking Dead (2022) Undécima Temporada AMZN WEB-DL 1080p Latino mega latino, The Walking Dead (2022) Undécima Temporada AMZN WEB-DL 1080p Latino 4k latino, The Walking Dead (2022) Undécima Temporada AMZN WEB-DL 1080p Latino pelicula completa, The Walking Dead (2022) Undécima Temporada AMZN WEB-DL 1080p Latino descargar gratis, descargar The Walking Dead (2022) Undécima Temporada AMZN WEB-DL 1080p Latino pelicula latino, The Walking Dead (2022) Undécima Temporada AMZN WEB-DL 1080p Latino 1 link mega, The Walking Dead (2022) Undécima Temporada AMZN WEB-DL 1080p Latino 1 link google drive, The Walking Dead (2022) Undécima Temporada AMZN WEB-DL 1080p Latino hd 1080p latino.
Comentarios 6