The Walking Dead (2019-2020) Temporada 10 AMZN WEB-DL 1080p Latino

10.939 vistas
1 estrella2 estrellas3 estrellas4 estrellas5 estrellas (7 votos, promedio: 4,29 de 5)
Cargando...

Información de The Walking Dead (2019-2020) Temporada 10 AMZN WEB-DL 1080p Latino

Datos de la película

  • Calidad: WEBDL
  • Audio: Español Latino AC3 2.0 FoxPlay - Ingles AC3 5.1 AMAZON
  • Subtitulos: Español Latino SRT- FORZADOS SRT
  • Resolución: 1920x1080
  • Formato: MKV
  • Codec: H.264
  • Encoder: cinemaniahdd
  • Mediainfo: Clic para Mostrar Datos Ver
  • The Walking Dead T10E16 AMZN WEB-DL 1080p Latino [CNMNHDD].mkv
    Format                      : Matroska
    Format version              : Version 4
    File size                   : 3.29 GiB
    Duration                    : 44 min 46 s
    Overall bit rate            : 10.5 Mb/s
    Movie name                  : The Walking Dead T10E16 - CinemaniaHDD.Net
    Encoded date                : UTC 2020-10-05 02:23:41
    Writing application         : mkvmerge v46.0.0 ('No Deeper Escape') 64-bit
    Writing library             : libebml v1.3.10 + libmatroska v1.5.2

    Video
    ID                          : 1
    Format                      : AVC
    Format/Info                 : Advanced Video Codec
    Format profile              : High@L4
    Format settings             : CABAC / 4 Ref Frames
    Format settings, CABAC      : Yes
    Format settings, Reference  : 4 frames
    Codec ID                    : V_MPEG4/ISO/AVC
    Duration                    : 44 min 46 s
    Bit rate mode               : Constant
    Bit rate                    : 10 000 kb/s
    Width                       : 1 920 pixels
    Height                      : 1 080 pixels
    Display aspect ratio        : 16:9
    Frame rate mode             : Constant
    Frame rate                  : 24.000 FPS
    Color space                 : YUV
    Chroma subsampling          : 4:2:0
    Bit depth                   : 8 bits
    Scan type                   : Progressive
    Bits/(Pixel*Frame)          : 0.201
    Stream size                 : 3.01 GiB (91%)
    Title                       : CinemaniaHDD
    Default                     : Yes
    Forced                      : No
    Color range                 : Limited
    Color primaries             : BT.709
    Transfer characteristics    : BT.709
    Matrix coefficients         : BT.709

    Audio #1
    ID                          : 2
    Format                      : AC-3
    Format/Info                 : Audio Coding 3
    Commercial name             : Dolby Digital
    Codec ID                    : A_AC3
    Duration                    : 44 min 46 s
    Bit rate mode               : Constant
    Bit rate                    : 256 kb/s
    Channel(s)                  : 2 channels
    Channel layout              : L R
    Sampling rate               : 48.0 kHz
    Frame rate                  : 31.250 FPS (1536 SPF)
    Compression mode            : Lossy
    Stream size                 : 82.0 MiB (2%)
    Title                       : Español latino [CinemaniaHDD]
    Language                    : Spanish
    Service kind                : Complete Main
    Default                     : Yes
    Forced                      : No

    Audio #2
    ID                          : 3
    Format                      : E-AC-3
    Format/Info                 : Enhanced AC-3
    Commercial name             : Dolby Digital Plus
    Codec ID                    : A_EAC3
    Duration                    : 44 min 46 s
    Bit rate mode               : Constant
    Bit rate                    : 640 kb/s
    Channel(s)                  : 6 channels
    Channel layout              : L R C LFE Ls Rs
    Sampling rate               : 48.0 kHz
    Frame rate                  : 31.250 FPS (1536 SPF)
    Compression mode            : Lossy
    Stream size                 : 205 MiB (6%)
    Title                       : Inglés [CinemaniaHDD]
    Language                    : English
    Service kind                : Complete Main
    Default                     : No
    Forced                      : No

    Text #1
    ID                          : 4
    Format                      : UTF-8
    Codec ID                    : S_TEXT/UTF8
    Codec ID/Info               : UTF-8 Plain Text
    Duration                    : 1 s 899 ms
    Bit rate                    : 84 b/s
    Count of elements           : 1
    Stream size                 : 20.0 Bytes (0%)
    Title                       : Forzados [CinemaniaHDD]
    Language                    : Spanish
    Default                     : Yes
    Forced                      : Yes

    Text #2
    ID                          : 5
    Format                      : UTF-8
    Codec ID                    : S_TEXT/UTF8
    Codec ID/Info               : UTF-8 Plain Text
    Duration                    : 43 min 54 s
    Bit rate                    : 27 b/s
    Count of elements           : 310
    Stream size                 : 8.92 KiB (0%)
    Title                       : Español latino [CinemaniaHDD]
    Language                    : Spanish
    Default                     : No
    Forced                      : No

    Text #3
    ID                          : 6
    Format                      : UTF-8
    Codec ID                    : S_TEXT/UTF8
    Codec ID/Info               : UTF-8 Plain Text
    Duration                    : 44 min 43 s
    Bit rate                    : 37 b/s
    Count of elements           : 726
    Stream size                 : 12.3 KiB (0%)
    Title                       : Inglés [CinemaniaHDD]
    Language                    : English
    Default                     : No
    Forced                      : No

     

  • Peso: 3.29 GiB C/U --- 55.1 GiB en 16 Chapters.

Sinopsis

«The Walking Dead» está ambientada en un futuro apocalíptico con la Tierra devastada por el efecto de un cataclismo, que ha provocado la mutación en zombies de la mayor parte de los habitantes del planeta. La serie, explora las dificultades de los protagonistas para sobrevivir en un mundo poblado por el horror, así como las relaciones personales que se establecen entre ellos, en ocasiones también una amenaza para su supervivencia.

16 CAPITULOS AGREGADOS

TEMPORADA COMPLETA

Ficha técnica

Video trailer de la película

Enlaces de descarga

Rip de Bluray

Descargar The Walking Dead (2019-2020) Temporada 10 AMZN WEB-DL 1080p Latino




Aportes de DPeliculasHDmega la pass es:dpeliculashdmega.org Aportes de CinemaniaHD la pass es:cinemaniahdd.com

Películas relacionadas

Comentarios 24
  • Jose_E.T. - 05 octubre, 2020

    Muchas gracias, veo que ya todos están con audio en español. Genial!!

  • Darinel Ruiz - 22 septiembre, 2020

    Podrían resubir la serie en Google Drive, es que cuando quiero intentar descargar, me pide «Solicitud de Acceso».

    Gracias por todos los aportes.

    • CinemaniaHDD - 04 octubre, 2020

      Resubido.

      • Darinel Ruiz - 05 octubre, 2020

        Gracias!!

  • Miguel - 27 marzo, 2020

    Hola, cuando se subirá el capitulo 13 de la temporada?

    • CinemaniaHDD - 05 abril, 2020

      los nuevos capitulos, no estan siendo doblado a español latino.

  • Maikel - 23 marzo, 2020

    Hola no hay forma de descargar ese tipo de enlace con la propia aplicacion de mega? ,te explico vivo en cuba y aqui no hay manera de q esos gestores funcionen ninguno sirve aqui por eso queria saber si hay alguna manera de acceder a los archivos q no sea con un gestor de esos y de agregarlos a la nuve de mega.

    • CinemaniaHDD - 23 marzo, 2020

      hola, hablas de los link de este post o de alguno otro?

  • King Atlan - 09 marzo, 2020

    Muchísimas gracias ¿cuando resuben la peli Armageddon (1998)? ya no esta disponible, si no la van a resubir por favor eliminen el post para no confundir a nadie, venía con hambre de ella y me lleve ostia.

    • CinemaniaHDD - 09 marzo, 2020

      que dices? si esta disponible verifica bien yo la veo super que activos los link de MEGA

      • King Atlan - 10 marzo, 2020

        Tienes razón amigo, disculpa la molestia, es que solo probe con los link de Google Drive, gracias por la peli y las series, gran trabajo.

        • CinemaniaHDD - 10 marzo, 2020

          ya resubi en todos los otros host

  • ALBERTO ENRIQUE LARA L - 05 marzo, 2020

    Apreciados señores:

    He disfrutado durante varios años de los magníficos aportes de ustedes.

    Lástima grande que ya no se puede bajar nada., porque cuando uno trata de llegar a los vínculos, van apareciendo infinidad de ventanas emergentes (muchas de ellas correspondientes a sitios potencialmente peligrosos) que impiden bajar los archivos correspondientes a las películas

    En esta forma, vamos a vernos precisados a no volver a este sitio.

    Les agradezco que adopten las medidas correctivas del caso.

    Reciban un cordial saludo,

    • CinemaniaHDD - 05 marzo, 2020

      Eso no esta en nuestra mano para cambiar.
      eso le corresponde a cada gestor de publicidad, si no te gustan adquiere membresia VIP no hay mas solucion para tu caso

  • Ghost - 08 diciembre, 2019

    Link n.#6 caido de Google Drive

    • CinemaniaHDD - 08 diciembre, 2019

      Solucionado

  • Ian - 25 noviembre, 2019

    El ultimo capitulo (10×08) en Google Drive no existe

    • CinemaniaHDD - 25 noviembre, 2019

      ya se actualizo todo, revise de nuevo

  • Joseee_ET - 20 noviembre, 2019

    Gracias!

  • Joseee_ET - 11 noviembre, 2019

    Muchas gracias por el nuevo capitulo!

  • DANIGRIS - 22 octubre, 2019

    al entrar en enlace te lleva a una pagina que ya no existe 🙁

    • CinemaniaHDD - 23 octubre, 2019

      borra cache

  • chinguenguencha - 21 octubre, 2019

    ONEDRIVE???? ES GENIALLLLLL!!!!!

  • Francisco - 18 octubre, 2019

    Muchas gracias por compartir!! Saludos