×

¿Problemas para descargar con Mozilla, EDGE? Deshabilita la opción "Abrir vinculos en una pestaña nueva" tal como lo muestra ésta imagen.

The Vow (2020) Temporada 1 AMZN WEB-DL 1080p Latino

444 vistas

Información de The Vow (2020) Temporada 1 AMZN WEB-DL 1080p Latino

Datos de la película

  • Calidad: WEBDL
  • Audio: Español Latino AC3 2.0 - Ingles AC3 2.0
  • Subtitulos: Español Latino SRT- FORZADOS SRT
  • Resolución: 1920x1080
  • Formato: MKV
  • Codec: H.264
  • Encoder: cinemaniahdd
  • Mediainfo: Clic para Mostrar Datos Ver
  • The Vow T01E01 AMZN WEB-DL 1080p Latino [CNMNHDD].mkv
    Format                      : Matroska
    Format version              : Version 4
    File size                   : 3.47 GiB
    Duration                    : 56 min 43 s
    Overall bit rate            : 8 749 kb/s
    Movie name                  : The Vow T01E01 - CinemaniaHDD.Net
    Encoded date                : UTC 2020-08-24 14:57:16
    Writing application         : mkvmerge v46.0.0 ('No Deeper Escape') 64-bit
    Writing library             : libebml v1.3.10 + libmatroska v1.5.2

    Video
    ID                          : 1
    Format                      : AVC
    Format/Info                 : Advanced Video Codec
    Format profile              : High@L4
    Format settings             : CABAC / 4 Ref Frames
    Format settings, CABAC      : Yes
    Format settings, Reference  : 4 frames
    Codec ID                    : V_MPEG4/ISO/AVC
    Duration                    : 56 min 43 s
    Bit rate mode               : Constant
    Bit rate                    : 8 267 kb/s
    Nominal bit rate            : 10 000 kb/s
    Width                       : 1 920 pixels
    Height                      : 1 080 pixels
    Display aspect ratio        : 16:9
    Frame rate mode             : Constant
    Frame rate                  : 23.976 (24000/1001) FPS
    Color space                 : YUV
    Chroma subsampling          : 4:2:0
    Bit depth                   : 8 bits
    Scan type                   : Progressive
    Bits/(Pixel*Frame)          : 0.166
    Stream size                 : 3.28 GiB (94%)
    Title                       : CinemaniaHDD
    Default                     : Yes
    Forced                      : No
    Color range                 : Limited
    Color primaries             : BT.709
    Transfer characteristics    : BT.709
    Matrix coefficients         : BT.709

    Audio #1
    ID                          : 2
    Format                      : AC-3
    Format/Info                 : Audio Coding 3
    Commercial name             : Dolby Digital
    Codec ID                    : A_AC3
    Duration                    : 56 min 43 s
    Bit rate mode               : Constant
    Bit rate                    : 256 kb/s
    Channel(s)                  : 2 channels
    Channel layout              : L R
    Sampling rate               : 48.0 kHz
    Frame rate                  : 31.250 FPS (1536 SPF)
    Compression mode            : Lossy
    Stream size                 : 104 MiB (3%)
    Title                       : Español latino [CinemaniaHDD]
    Language                    : Spanish
    Service kind                : Complete Main
    Default                     : Yes
    Forced                      : Yes

    Audio #2
    ID                          : 3
    Format                      : E-AC-3
    Format/Info                 : Enhanced AC-3
    Commercial name             : Dolby Digital Plus
    Codec ID                    : A_EAC3
    Duration                    : 56 min 43 s
    Bit rate mode               : Constant
    Bit rate                    : 224 kb/s
    Channel(s)                  : 2 channels
    Channel layout              : L R
    Sampling rate               : 48.0 kHz
    Frame rate                  : 31.250 FPS (1536 SPF)
    Compression mode            : Lossy
    Delay relative to video     : 28 ms
    Stream size                 : 90.9 MiB (3%)
    Title                       : Inglés [CinemaniaHDD]
    Language                    : English
    Service kind                : Complete Main
    Default                     : No
    Forced                      : No

    Text #1
    ID                          : 4
    Format                      : UTF-8
    Codec ID                    : S_TEXT/UTF8
    Codec ID/Info               : UTF-8 Plain Text
    Duration                    : 54 min 24 s
    Bit rate                    : 98 b/s
    Count of elements           : 964
    Stream size                 : 39.1 KiB (0%)
    Title                       : Español latino [CinemaniaHDD]
    Language                    : Spanish
    Default                     : No
    Forced                      : No

    Text #2
    ID                          : 5
    Format                      : UTF-8
    Codec ID                    : S_TEXT/UTF8
    Codec ID/Info               : UTF-8 Plain Text
    Duration                    : 56 min 27 s
    Bit rate                    : 103 b/s
    Count of elements           : 1104
    Stream size                 : 42.7 KiB (0%)
    Title                       : Inglés [CinemaniaHDD]
    Language                    : English
    Default                     : No
    Forced                      : No

     

  • Peso: 3.47 GiB --- 3 CAPITULOS AGREGADOS

Sinopsis

Serie documental de HBO que presenta una mirada al grupo de desarrollo personal NXIVM, expuesto en 2017 como una secta sexual después de una investigación que reveló la participación de notables de EUA y México. Investigando en profundidad y detalle las experiencias de los implicados, la serie indaga en las razones personales de los miembros de la organización.

3 CAPITULOS AGREGADOS

Ficha técnica

  • Titulo original: The Vow
  • Fecha de lanzamiento: 23-08-2020 (US)
  • Género: Documental, HBO, Series

Video trailer de la película

Enlaces de descarga

Rip de Bluray

Descargar The Vow (2020) Temporada 1 AMZN WEB-DL 1080p Latino




Aportes de DPeliculasHDmega la pass es:dpeliculashdmega.org Aportes de CinemaniaHD la pass es:cinemaniahdd.com
Guardado en : Documental , HBO , Series

Películas relacionadas

descargar The Vow (2020) Temporada 1 AMZN WEB-DL 1080p Latino WEBDL 1080p gratis, The Vow (2020) Temporada 1 AMZN WEB-DL 1080p Latino WEBDL mega 1 link, The Vow (2020) Temporada 1 AMZN WEB-DL 1080p Latino WEBDL serie completa, descargar The Vow (2020) Temporada 1 AMZN WEB-DL 1080p Latino WEBDL gratis en mega.

The Vow (2020) Temporada 1 AMZN WEB-DL 1080p Latino pelicula full hd, The Vow (2020) Temporada 1 AMZN WEB-DL 1080p Latino mega latino, The Vow (2020) Temporada 1 AMZN WEB-DL 1080p Latino 4k latino, The Vow (2020) Temporada 1 AMZN WEB-DL 1080p Latino pelicula completa, The Vow (2020) Temporada 1 AMZN WEB-DL 1080p Latino descargar gratis, descargar The Vow (2020) Temporada 1 AMZN WEB-DL 1080p Latino pelicula latino, The Vow (2020) Temporada 1 AMZN WEB-DL 1080p Latino 1 link mega, The Vow (2020) Temporada 1 AMZN WEB-DL 1080p Latino 1 link google drive, The Vow (2020) Temporada 1 AMZN WEB-DL 1080p Latino hd 1080p latino.
Comentarios 1
  • Mike - 28 octubre, 2020

    Excelente aporte!! Subirán los capítulos restantes? Gracias!