×

¿Problemas para descargar con Mozilla, EDGE? Deshabilita la opción "Abrir vinculos en una pestaña nueva" tal como lo muestra ésta imagen.

Las Virgenes Suicidas (1999) «Criterion Collection» REMUX 1080p Latino – CMHDD

244 vistas

Información de Las Virgenes Suicidas (1999) «Criterion Collection» REMUX 1080p Latino – CMHDD

Datos de la película

  • Calidad: Full 1080p
  • Audio: Español Latino AC3 2.0 DVD - Ingles DTS 5.1 BLURAY
  • Subtitulos: Español Latino SRT- FORZADOS SRT
  • Resolución: 1920x1080p
  • Formato: MKV
  • Codec: H.264
  • Encoder: Dracarys
  • Mediainfo: Clic para Mostrar Datos Ver
  • Las Virgenes Suicidas CC (1999) REMUX 1080p Latino-CMHDD.mkv
    Format                      : Matroska
    Format version              : Version 4
    File size                   : 26.6 GiB
    Duration                    : 1 h 37 min
    Overall bit rate mode       : Variable
    Overall bit rate            : 39.2 Mb/s
    Movie name                  : The Virgin Suicides (1999) CinemaniaHDD.Net
    Encoded date                : UTC 2021-04-11 20:08:54
    Writing application         : mkvmerge v51.0.0 ('I Wish') 64-bit
    Writing library             : libebml v1.4.0 + libmatroska v1.6.2
    Attachments                 : CINEMANIAHD.png

    Video
    ID                          : 1
    ID in the original source m : 4113 (0x1011)
    Format                      : AVC
    Format/Info                 : Advanced Video Codec
    Format profile              : High@L4.1
    Format settings             : CABAC / 4 Ref Frames
    Format settings, CABAC      : Yes
    Format settings, Reference  : 4 frames
    Codec ID                    : V_MPEG4/ISO/AVC
    Duration                    : 1 h 37 min
    Bit rate mode               : Variable
    Bit rate                    : 35.2 Mb/s
    Maximum bit rate            : 37.0 Mb/s
    Width                       : 1 920 pixels
    Height                      : 1 080 pixels
    Display aspect ratio        : 16:9
    Frame rate mode             : Constant
    Frame rate                  : 23.976 (24000/1001) FPS
    Color space                 : YUV
    Chroma subsampling          : 4:2:0
    Bit depth                   : 8 bits
    Scan type                   : Progressive
    Bits/(Pixel*Frame)          : 0.707
    Stream size                 : 23.8 GiB (90%)
    Title                       : REMUX HD1080p [CinemaniaHDD]
    Default                     : Yes
    Forced                      : No
    Original source medium      : Blu-ray

    Audio #1
    ID                          : 2
    Format                      : AC-3
    Format/Info                 : Audio Coding 3
    Commercial name             : Dolby Digital
    Codec ID                    : A_AC3
    Duration                    : 1 h 37 min
    Bit rate mode               : Constant
    Bit rate                    : 256 kb/s
    Channel(s)                  : 2 channels
    Channel layout              : L R
    Sampling rate               : 48.0 kHz
    Frame rate                  : 31.250 FPS (1536 SPF)
    Compression mode            : Lossy
    Stream size                 : 178 MiB (1%)
    Title                       : Español Latino [CinemaniaHDD]
    Language                    : Spanish
    Service kind                : Complete Main
    Default                     : Yes
    Forced                      : No

    Audio #2
    ID                          : 3
    ID in the original source m : 4352 (0x1100)
    Format                      : DTS XLL
    Format/Info                 : Digital Theater Systems
    Commercial name             : DTS-HD Master Audio
    Codec ID                    : A_DTS
    Duration                    : 1 h 37 min
    Bit rate mode               : Variable
    Bit rate                    : 3 763 kb/s
    Channel(s)                  : 6 channels
    Channel layout              : C L R Ls Rs LFE
    Sampling rate               : 48.0 kHz
    Frame rate                  : 93.750 FPS (512 SPF)
    Bit depth                   : 24 bits
    Compression mode            : Lossless
    Stream size                 : 2.55 GiB (10%)
    Title                       : Ingles [CinemaniaHDD]
    Language                    : English
    Default                     : No
    Forced                      : No
    Original source medium      : Blu-ray

    Text #1
    ID                          : 4
    Format                      : UTF-8
    Codec ID                    : S_TEXT/UTF8
    Codec ID/Info               : UTF-8 Plain Text
    Duration                    : 33 min 12 s
    Bit rate                    : 0 b/s
    Count of elements           : 3
    Stream size                 : 49.0 Bytes (0%)
    Title                       : Forzados-SRT [CinemaniaHDD]
    Language                    : Spanish
    Default                     : Yes
    Forced                      : No

    Text #2
    ID                          : 5
    Format                      : UTF-8
    Codec ID                    : S_TEXT/UTF8
    Codec ID/Info               : UTF-8 Plain Text
    Duration                    : 1 h 29 min
    Bit rate                    : 56 b/s
    Count of elements           : 967
    Stream size                 : 36.9 KiB (0%)
    Title                       : Español-SRT [CinemaniaHDD]
    Language                    : Spanish
    Default                     : No
    Forced                      : No

    Text #3
    ID                          : 6
    ID in the original source m : 4608 (0x1200)
    Format                      : PGS
    Muxing mode                 : zlib
    Codec ID                    : S_HDMV/PGS
    Codec ID/Info               : Picture based subtitle format used on BDs/HD-DVDs
    Duration                    : 1 h 33 min
    Bit rate                    : 55.4 kb/s
    Count of elements           : 2541
    Stream size                 : 37.2 MiB (0%)
    Title                       : Ingles-PGS [CinemaniaHDD]
    Language                    : English
    Default                     : No
    Forced                      : No
    Original source medium      : Blu-ray

    Menu
    00:00:00.000                : en:Chapter 01
    00:04:00.240                : en:Chapter 02
    00:11:35.986                : en:Chapter 03
    00:18:51.672                : en:Chapter 04
    00:24:10.532                : en:Chapter 05
    00:27:10.045                : en:Chapter 06
    00:35:16.989                : en:Chapter 07
    00:42:12.029                : en:Chapter 08
    00:46:07.431                : en:Chapter 09
    00:55:13.768                : en:Chapter 10
    01:01:06.412                : en:Chapter 11
    01:06:25.690                : en:Chapter 12
    01:13:46.046                : en:Chapter 13
    01:19:50.619                : en:Chapter 14
    01:24:30.482                : en:Chapter 15
    01:27:36.334                : en:Chapter 16

  • Peso: 26.6 GiB

Sinopsis

Descargar Las Virgenes Suicidas (1999) «Criterion Collection» REMUX 1080p Latino – CMHDD. A mediados de los 70, en un barrio residencial de una ciudad americana vive en perfecta armonía la familia Lisbon. Todos los chicos suspiran por las cinco hermosas hermanas Lisbon. Sin embargo, ese paraíso se desmorona cuando Cecilia, la menor, se suicida a los doce años. ¿Cómo puede convivir la belleza más pura con una macabra historia adolescente? Ésta es la pregunta que persigue a uno de aquellos adolescentes que, ya en su madurez, aún no ha podido olvidar los sucesos ocurridos veinte años antes.

Ficha técnica

  • Titulo original: The Virgin Suicides
  • Fecha de lanzamiento: 31-12-1999 (United States of America)
  • Director: Sofia Coppola
  • Género: Drama, Remux, Romance

Video trailer de la película

Enlaces de descarga

Rip de Bluray

Descargar Las Virgenes Suicidas (1999) «Criterion Collection» REMUX 1080p Latino – CMHDD


Aportes de DPeliculasHDmega la pass es:dpeliculashdmega.org Aportes de CinemaniaHD la pass es:cinemaniahdd.com
Guardado en : Drama , Remux , Romance

Películas relacionadas

descargar Las Virgenes Suicidas (1999) «Criterion Collection» REMUX 1080p Latino – CMHDD Full 1080p 1080p gratis, Las Virgenes Suicidas (1999) «Criterion Collection» REMUX 1080p Latino – CMHDD Full 1080p mega 1 link, Las Virgenes Suicidas (1999) «Criterion Collection» REMUX 1080p Latino – CMHDD Full 1080p pelicula completa, descargar Las Virgenes Suicidas (1999) «Criterion Collection» REMUX 1080p Latino – CMHDD Full 1080p gratis en mega.

Las Virgenes Suicidas (1999) «Criterion Collection» REMUX 1080p Latino – CMHDD pelicula full hd, Las Virgenes Suicidas (1999) «Criterion Collection» REMUX 1080p Latino – CMHDD mega latino, Las Virgenes Suicidas (1999) «Criterion Collection» REMUX 1080p Latino – CMHDD 4k latino, Las Virgenes Suicidas (1999) «Criterion Collection» REMUX 1080p Latino – CMHDD pelicula completa, Las Virgenes Suicidas (1999) «Criterion Collection» REMUX 1080p Latino – CMHDD descargar gratis, descargar Las Virgenes Suicidas (1999) «Criterion Collection» REMUX 1080p Latino – CMHDD pelicula latino, Las Virgenes Suicidas (1999) «Criterion Collection» REMUX 1080p Latino – CMHDD 1 link mega, Las Virgenes Suicidas (1999) «Criterion Collection» REMUX 1080p Latino – CMHDD 1 link google drive, Las Virgenes Suicidas (1999) «Criterion Collection» REMUX 1080p Latino – CMHDD hd 1080p latino.
Comentarios 0