×

¿Problemas para descargar con Mozilla, EDGE? Deshabilita la opción "Abrir vinculos en una pestaña nueva" tal como lo muestra ésta imagen.

The Village (2023) Primera Temporada AMZN WEB-DL 1080p Latino

121 vistas

Información de The Village (2023) Primera Temporada AMZN WEB-DL 1080p Latino

Datos de la película

  • Calidad: 1080p
  • Audio: Español Latino AC3 5.1 WEB-DL - Ingles AC3 5.1 WEB-DL
  • Subtitulos: Español Latino SRT- FORZADOS SRT
  • Resolución: 1920x1080
  • Formato: MKV
  • Codec: H.264
  • Encoder: cinemaniahdd
  • Mediainfo: Clic para Mostrar Datos Ver
  • The Village T01E01 AMZN WEB-DL 1080p Latino [CNMNHDD].mkv
    Format                      : Matroska
    Format version              : Version 4
    File size                   : 2.66 GiB
    Duration                    : 39 min 47 s
    Overall bit rate            : 9 571 kb/s
    Movie name                  : The Village S01E02 - Mission Kattiyal [1080p] - CinemaniaHDD.Net
    Encoded date                : UTC 2023-11-23 23:10:12
    Writing application         : mkvmerge v56.1.0 ('My Friend') 64-bit
    Writing library             : libebml v1.4.2 + libmatroska v1.6.4

    Video
    ID                          : 1
    Format                      : AVC
    Format/Info                 : Advanced Video Codec
    Format profile              : High@L4
    Format settings             : CABAC / 4 Ref Frames
    Format settings, CABAC      : Yes
    Format settings, Reference  : 4 frames
    Codec ID                    : V_MPEG4/ISO/AVC
    Duration                    : 39 min 47 s
    Bit rate mode               : Constant
    Bit rate                    : 7 648 kb/s
    Nominal bit rate            : 10 000 kb/s
    Width                       : 1 920 pixels
    Height                      : 960 pixels
    Display aspect ratio        : 2.000
    Frame rate mode             : Constant
    Frame rate                  : 24.000 FPS
    Color space                 : YUV
    Chroma subsampling          : 4:2:0
    Bit depth                   : 8 bits
    Scan type                   : Progressive
    Bits/(Pixel*Frame)          : 0.173
    Stream size                 : 2.13 GiB (80%)
    Title                       : CinemaniaHDD
    Default                     : Yes
    Forced                      : No
    Color range                 : Limited
    Color primaries             : BT.709
    Transfer characteristics    : BT.709
    Matrix coefficients         : BT.709

    Audio #1
    ID                          : 2
    Format                      : AC-3
    Format/Info                 : Audio Coding 3
    Commercial name             : Dolby Digital
    Codec ID                    : A_AC3
    Duration                    : 39 min 47 s
    Bit rate mode               : Constant
    Bit rate                    : 640 kb/s
    Channel(s)                  : 6 channels
    Channel layout              : L R C LFE Ls Rs
    Sampling rate               : 48.0 kHz
    Frame rate                  : 31.250 FPS (1536 SPF)
    Compression mode            : Lossy
    Stream size                 : 182 MiB (7%)
    Title                       : Español Latino [CinemaniaHDD]
    Language                    : Spanish
    Service kind                : Complete Main
    Default                     : Yes
    Forced                      : No

    Audio #2
    ID                          : 3
    Format                      : E-AC-3
    Format/Info                 : Enhanced AC-3
    Commercial name             : Dolby Digital Plus
    Codec ID                    : A_EAC3
    Duration                    : 39 min 47 s
    Bit rate mode               : Constant
    Bit rate                    : 640 kb/s
    Channel(s)                  : 6 channels
    Channel layout              : L R C LFE Ls Rs
    Sampling rate               : 48.0 kHz
    Frame rate                  : 31.250 FPS (1536 SPF)
    Compression mode            : Lossy
    Stream size                 : 182 MiB (7%)
    Title                       : Español latino / E-AC3 [CinemaniaHDD]
    Language                    : Spanish
    Service kind                : Complete Main
    Default                     : No
    Forced                      : No

    Audio #3
    ID                          : 4
    Format                      : E-AC-3
    Format/Info                 : Enhanced AC-3
    Commercial name             : Dolby Digital Plus
    Codec ID                    : A_EAC3
    Duration                    : 39 min 47 s
    Bit rate mode               : Constant
    Bit rate                    : 640 kb/s
    Channel(s)                  : 6 channels
    Channel layout              : L R C LFE Ls Rs
    Sampling rate               : 48.0 kHz
    Frame rate                  : 31.250 FPS (1536 SPF)
    Compression mode            : Lossy
    Stream size                 : 182 MiB (7%)
    Title                       : Inglés [CinemaniaHDD]
    Language                    : English
    Service kind                : Complete Main
    Default                     : No
    Forced                      : No

    Text #1
    ID                          : 5
    Format                      : UTF-8
    Codec ID                    : S_TEXT/UTF8
    Codec ID/Info               : UTF-8 Plain Text
    Duration                    : 13 min 16 s
    Bit rate                    : 4 b/s
    Count of elements           : 11
    Stream size                 : 426 Bytes (0%)
    Title                       : Forzados [CinemaniaHDD]
    Language                    : Spanish
    Default                     : Yes
    Forced                      : Yes

    Text #2
    ID                          : 6
    Format                      : UTF-8
    Codec ID                    : S_TEXT/UTF8
    Codec ID/Info               : UTF-8 Plain Text
    Duration                    : 37 min 55 s
    Bit rate                    : 43 b/s
    Count of elements           : 431
    Stream size                 : 12.0 KiB (0%)
    Title                       : Español Latino [CinemaniaHDD]
    Language                    : Spanish
    Default                     : No
    Forced                      : No

    Text #3
    ID                          : 7
    Format                      : UTF-8
    Codec ID                    : S_TEXT/UTF8
    Codec ID/Info               : UTF-8 Plain Text
    Duration                    : 35 min 2 s
    Bit rate                    : 49 b/s
    Count of elements           : 435
    Stream size                 : 12.7 KiB (0%)
    Title                       : Inglés [CinemaniaHDD]
    Language                    : English
    Default                     : No
    Forced                      : No

    Menu
    00:00:00.000                : 1. Prime Video
    00:00:06.000                : 2. Disclaimer
    00:00:16.000                : Scene 3
    00:03:30.000                : 4. Opening Credits
    00:04:31.000                : Scene 5
    00:06:48.000                : Scene 6
    00:09:15.000                : Scene 7
    00:13:29.000                : Scene 8
    00:16:14.000                : Scene 9
    00:18:59.000                : Scene 10
    00:19:20.000                : Scene 11
    00:23:17.000                : Scene 12
    00:27:54.000                : Scene 13
    00:29:40.000                : Scene 14
    00:33:02.000                : Scene 15
    00:36:15.000                : 16. End Credits

     

  • Peso: 2.66 GiB Aprox ---- 18 GiB in 6 Chapters.

Sinopsis

A las afueras de Tamil Nadu, un citadino varado solicita la ayuda de tres lugareños para encontrar a su familia desaparecida, que se cree que fue secuestrada por seres malvados de un pueblo maldito. Mientras tanto, el maníaco heredero de un imperio farmacéutico envía un grupo de mercenarios al mismo pueblo para recuperar algo olvidado hace mucho tiempo. ¿Saldrán vivos de esta noche de terror?

Ficha técnica

Video trailer de la película

Enlaces de descarga

Rip de Bluray

Descargar The Village (2023) Primera Temporada AMZN WEB-DL 1080p Latino




Aportes de DPeliculasHDmega la pass es:dpeliculashdmega.org Aportes de CinemaniaHD la pass es:cinemaniahdd.com Aportes recientes:cinemaniahdd.net
Guardado en : Misterio , Sci-Fi & Fantasy , Series

Películas relacionadas

descargar The Village (2023) Primera Temporada AMZN WEB-DL 1080p Latino 1080p 1080p gratis, The Village (2023) Primera Temporada AMZN WEB-DL 1080p Latino 1080p mega 1 link, The Village (2023) Primera Temporada AMZN WEB-DL 1080p Latino 1080p serie completa, descargar The Village (2023) Primera Temporada AMZN WEB-DL 1080p Latino 1080p gratis en mega.

The Village (2023) Primera Temporada AMZN WEB-DL 1080p Latino pelicula full hd, The Village (2023) Primera Temporada AMZN WEB-DL 1080p Latino mega latino, The Village (2023) Primera Temporada AMZN WEB-DL 1080p Latino 4k latino, The Village (2023) Primera Temporada AMZN WEB-DL 1080p Latino pelicula completa, The Village (2023) Primera Temporada AMZN WEB-DL 1080p Latino descargar gratis, descargar The Village (2023) Primera Temporada AMZN WEB-DL 1080p Latino pelicula latino, The Village (2023) Primera Temporada AMZN WEB-DL 1080p Latino 1 link mega, The Village (2023) Primera Temporada AMZN WEB-DL 1080p Latino 1 link google drive, The Village (2023) Primera Temporada AMZN WEB-DL 1080p Latino hd 1080p latino.
Comentarios 0