×

¿Problemas para descargar con Mozilla, EDGE? Deshabilita la opción "Abrir vinculos en una pestaña nueva" tal como lo muestra ésta imagen.

Keepers: El misterio Del Faro (2018) Full HD 1080p Latino

383 vistas

Información de Keepers: El misterio Del Faro (2018) Full HD 1080p Latino

Datos de la película

  • Calidad: Full 1080p
  • Audio: Español Latino AC3 5.1 DVD - Ingles DTS 5.1 BLURAY
  • Subtitulos: Español Latino SRT- FORZADOS SRT
  • Resolución: 1920x1080p
  • Formato: MKV
  • Codec: H.264
  • Encoder: CinefiloCool
  • Mediainfo: Clic para Mostrar Datos Ver
  • Keepers (2018) Full HD 1080p Latino.mkv
    Format                      : Matroska
    Format version              : Version 4
    File size                   : 6.12 GiB
    Duration                    : 1 h 47 min
    Overall bit rate mode       : Variable
    Overall bit rate            : 8 147 kb/s
    Movie name                  : The Vanishing (2018) CinemaniaHDD.Net
    Encoded date                : UTC 2020-04-29 20:04:20
    Writing application         : mkvmerge v42.0.0 ('Overtime') 64-bit
    Writing library             : libebml v1.3.10 + libmatroska v1.5.2
    Attachments                 : CINEMANIAHD.png

    Video
    ID                          : 1
    Format                      : AVC
    Format/Info                 : Advanced Video Codec
    Format profile              : High@L4.1
    Format settings             : CABAC / 4 Ref Frames
    Format settings, CABAC      : Yes
    Format settings, ReFrames   : 4 frames
    Codec ID                    : V_MPEG4/ISO/AVC
    Duration                    : 1 h 47 min
    Bit rate                    : 4 222 kb/s
    Width                       : 1 920 pixels
    Height                      : 1 080 pixels
    Display aspect ratio        : 16:9
    Frame rate mode             : Constant
    Frame rate                  : 23.976 (24000/1001) FPS
    Color space                 : YUV
    Chroma subsampling          : 4:2:0
    Bit depth                   : 8 bits
    Scan type                   : Progressive
    Bits/(Pixel*Frame)          : 0.085
    Stream size                 : 3.17 GiB (52%)
    Title                       : Full HD1080p [CinemaniaHDD]
    Writing library             : x264 core 157 r2935 545de2f
    Encoding settings           : cabac=1 / ref=4 / deblock=1:0:0 / analyse=0x3:0x133 / me=tesa / subme=11 / psy=1 / psy_rd=1.00:0.00 / mixed_ref=1 / me_range=24 / chroma_me=1 / trellis=2 / 8x8dct=1 / cqm=0 / deadzone=21,11 / fast_pskip=0 / chroma_qp_offset=-2 / threads=34 / lookahead_threads=8 / sliced_threads=0 / nr=0 / decimate=1 / interlaced=0 / bluray_compat=0 / constrained_intra=0 / bframes=16 / b_pyramid=2 / b_adapt=2 / b_bias=0 / direct=3 / weightb=1 / open_gop=0 / weightp=2 / keyint=240 / keyint_min=24 / scenecut=40 / intra_refresh=0 / rc_lookahead=60 / rc=crf / mbtree=1 / crf=20.0 / qcomp=0.60 / qpmin=0 / qpmax=69 / qpstep=4 / vbv_maxrate=62500 / vbv_bufsize=78125 / crf_max=0.0 / nal_hrd=none / filler=0 / ip_ratio=1.40 / aq=1:1.00
    Default                     : Yes
    Forced                      : Yes
    Color range                 : Limited
    Color primaries             : BT.709
    Transfer characteristics    : BT.709
    Matrix coefficients         : BT.709

    Audio #1
    ID                          : 2
    Format                      : AC-3
    Format/Info                 : Audio Coding 3
    Commercial name             : Dolby Digital
    Codec ID                    : A_AC3
    Duration                    : 1 h 47 min
    Bit rate mode               : Constant
    Bit rate                    : 448 kb/s
    Channel(s)                  : 6 channels
    Channel layout              : L R C LFE Ls Rs
    Sampling rate               : 48.0 kHz
    Frame rate                  : 31.250 FPS (1536 SPF)
    Bit depth                   : 16 bits
    Compression mode            : Lossy
    Stream size                 : 344 MiB (5%)
    Title                       : Español Latino [CinemaniaHDD]
    Language                    : Spanish
    Service kind                : Complete Main
    Default                     : Yes
    Forced                      : No

    Audio #2
    ID                          : 3
    Format                      : DTS XLL
    Format/Info                 : Digital Theater Systems
    Commercial name             : DTS-HD Master Audio
    Codec ID                    : A_DTS
    Duration                    : 1 h 47 min
    Bit rate mode               : Variable
    Bit rate                    : 3 475 kb/s
    Channel(s)                  : 6 channels
    Channel layout              : C L R Ls Rs LFE
    Sampling rate               : 48.0 kHz
    Frame rate                  : 93.750 FPS (512 SPF)
    Bit depth                   : 24 bits
    Compression mode            : Lossless
    Stream size                 : 2.61 GiB (43%)
    Title                       : Ingles [CinemaniaHDD]
    Language                    : English
    Default                     : No
    Forced                      : No

    Text #1
    ID                          : 4
    Format                      : UTF-8
    Codec ID                    : S_TEXT/UTF8
    Codec ID/Info               : UTF-8 Plain Text
    Duration                    : 15 s 950 ms
    Bit rate                    : 112 b/s
    Count of elements           : 4
    Stream size                 : 224 Bytes (0%)
    Title                       : Forzados-SRT [CinemaniaHDD]
    Language                    : Spanish
    Default                     : Yes
    Forced                      : No

    Text #2
    ID                          : 5
    Format                      : UTF-8
    Codec ID                    : S_TEXT/UTF8
    Codec ID/Info               : UTF-8 Plain Text
    Duration                    : 1 h 38 min
    Bit rate                    : 25 b/s
    Count of elements           : 800
    Stream size                 : 18.7 KiB (0%)
    Title                       : Español-SRT [CinemaniaHDD]
    Language                    : Spanish
    Default                     : No
    Forced                      : No

    Text #3
    ID                          : 6
    Format                      : UTF-8
    Codec ID                    : S_TEXT/UTF8
    Codec ID/Info               : UTF-8 Plain Text
    Duration                    : 1 h 37 min
    Bit rate                    : 26 b/s
    Count of elements           : 804
    Stream size                 : 18.8 KiB (0%)
    Title                       : Ingles-SRT [CinemaniaHDD]
    Language                    : Spanish
    Default                     : No
    Forced                      : No

    Menu
    00:00:00.000                : en:Chapter 1
    00:04:41.031                : en:Chapter 2
    00:14:32.789                : en:Chapter 3
    00:19:03.684                : en:Chapter 4
    00:27:41.827                : en:Chapter 5
    00:35:04.019                : en:Chapter 6
    00:39:04.592                : en:Chapter 7
    00:49:57.578                : en:Chapter 8
    00:54:25.762                : en:Chapter 9
    01:01:23.013                : en:Chapter 10
    01:05:38.226                : en:Chapter 11
    01:15:11.966                : en:Chapter 12
    01:21:58.747                : en:Chapter 13
    01:25:58.820                : en:Chapter 14
    01:35:21.382                : en:Chapter 15
    01:40:55.800                : en:Chapter 16

  • Peso: 6.12 GiB

Sinopsis

Descargar The Vanishing AKA. Keepers: El misterio Del Faro [La Desaparición] (2018) Full HD 1080p Latino. Tres fareros llegan a una isla abandonada. Thomas, James y Donald comienzan sus rutinas, hasta que algo inesperado ocurre: topan con algo extraño, algo que no es exactamente lo que un farero debería vigilar. Las cosas se complicarán cuando avistan un barco que podría tener todas las respuestas, desatando un thriller psicológico basado en la leyenda de la isla de Flannan.

Ficha técnica

Video trailer de la película

Enlaces de descarga

Rip de Bluray

Descargar Keepers: El misterio Del Faro (2018) Full HD 1080p Latino




Aportes de DPeliculasHDmega la pass es:dpeliculashdmega.org Aportes de CinemaniaHD la pass es:cinemaniahdd.com

Películas relacionadas

descargar Keepers: El misterio Del Faro (2018) Full HD 1080p Latino Full 1080p 1080p gratis, Keepers: El misterio Del Faro (2018) Full HD 1080p Latino Full 1080p mega 1 link, Keepers: El misterio Del Faro (2018) Full HD 1080p Latino Full 1080p pelicula completa, descargar Keepers: El misterio Del Faro (2018) Full HD 1080p Latino Full 1080p gratis en mega.

Keepers: El misterio Del Faro (2018) Full HD 1080p Latino pelicula full hd, Keepers: El misterio Del Faro (2018) Full HD 1080p Latino mega latino, Keepers: El misterio Del Faro (2018) Full HD 1080p Latino 4k latino, Keepers: El misterio Del Faro (2018) Full HD 1080p Latino pelicula completa, Keepers: El misterio Del Faro (2018) Full HD 1080p Latino descargar gratis, descargar Keepers: El misterio Del Faro (2018) Full HD 1080p Latino pelicula latino, Keepers: El misterio Del Faro (2018) Full HD 1080p Latino 1 link mega, Keepers: El misterio Del Faro (2018) Full HD 1080p Latino 1 link google drive, Keepers: El misterio Del Faro (2018) Full HD 1080p Latino hd 1080p latino.
Comentarios 0